2 сезон

iTunes

1 сезон

1

iTunes

iTunes

iTunes

1 сезон

RePack

30

ИГРА 18+

pack

ВАЖНО

!!Акция!!

Alien_RageХит недели

RePack

MK11
pack

Забери бонус

RePack

jed

!!Акция!!

Alien_Rage

RePack

fifa19

RePack

Assassins Creed: Odyssey

RePack

NEED FOR SPEED™ PAYBACK

4 сезон

9 сезон

Бесстыжие 9 сезон

Все сериалы

все сериалы на PB.wtf

RePack

FAR CRY 5
  

Свидетели / Сезон: 2 / Серии: 1-80 из 80 (Михаил Богдасаров, Игорь Твердохлебов, Илья Шеховцов) [2017, Детектив, HDTVRip] pb.wtf

Свидетели через торрент pb.wtf

Размер: 45.82 GB | Добавлен: 2 года 2 мес. назад | Торрент скачан:16 раз
Скачать  

15-08-2018 04:09 Свидетели Скачать торрент  

СвидетелиГод выпуска: 2017
Страна: Россия
Жанр: Детектив
Продолжительность: ~ 00:45:00
Субтитры: отсутствуют

Режиссер: Михаил Богдасаров, Игорь Твердохлебов, Илья Шеховцов

rating

В ролях:

Николай Сердцев, Станислав Повольнов, Дмитрий Соловьёв, Павел Демьянов, Максим Дримлинг, Ирина Минеева, Татьяна Храмова, Лариса Резникова, Егор Вадов, Александр Дуда, Екатерина Буйлова, Ирина Шеянова, Артём Федотов, Антон Савватимов, Сергей Букреев, Вилен Бабичев, Владимир Чуприков, Николай Зазуля

Описание:

Следственно-аналитическое управление САУ возглавляет полковник Андрей Громов. Сотрудники управления занимаются розыском преступников и криминалистической экспертизой. Они изучают улики, строят доказательную базу, опрашивают свидетелей и проводят очные ставки в высокотехнологичном офисе, оборудованном по последнему слову техники. В их распоряжении допросные комнаты, камеры заключения, научная лаборатория, а также сканеры, тепловизоры, датчики движения, аппараты для изучения психофизического состояния и новейшие детекторы лжи. Агенты могут обнаружить на месте преступления не только отпечатки пальцев, но и следы электронных устройств, которые находились в момент убийства на этой территории. В этом сотрудникам САУ помогает передвижная лаборатория «Сканер», имеющая доступ к сотовым вышкам.

Качество: HDTVRip
Формат: AVI

Видео: XviD, ~ 1650 Кбит/с, 720x400
Аудио: AC3, 2 ch, 192 Кбит/с
скриншот  скриншот  скриншот  скриншот  

Общее
Полное имя : E:\Svideteli.2s.2017.HDTVRip.Files-x\01.Svideteli.2s.2017.HDTVRip.Files-x.avi
Формат : AVI
Формат/Информация : Audio Video Interleave
Размер файла : 600 Мбайт
Продолжительность : 46 м. 56 с.
Общий поток : 1788 Кбит/сек
Программа кодирования : VirtualDubMod 1.5.10.3 | www.virtualdub-fr.org || (build 2550/release)
Библиотека кодирования : VirtualDubMod build 2550/release

Видео
Идентификатор : 0
Формат : MPEG-4 Visual
Профиль формата : Advanced Simple@L5
Настройки формата : BVOP1 / Custom Matrix
Параметр BVOP формата : 1
Параметр QPel формата : Нет
Параметр GMC формата : Без точки перехода
Параметр матрицы формата : Выборочная
Идентификатор кодека : XVID
Идентификатор кодека/Подсказка : XviD
Продолжительность : 46 м. 56 с.
Битрейт : 1586 Кбит/сек
Ширина : 720 пикселей
Высота : 400 пикселей
Соотношение сторон : 16:9
Частота кадров : 25,000 кадров/сек
Цветовое пространство : YUV
Субдискретизация насыщенности : 4:2:0
Битовая глубина : 8 бит
Тип развёртки : Прогрессивная
Метод сжатия : С потерями
Бит/(Пиксели*Кадры) : 0.220
Размер потока : 532 Мбайт (89%)
Библиотека кодирования : XviD 73

Аудио
Идентификатор : 1
Формат : AC-3
Формат/Информация : Audio Coding 3
Идентификатор кодека : 2000
Продолжительность : 46 м. 56 с.
Вид битрейта : Постоянный
Битрейт : 192 Кбит/сек
Каналы : 2 канала
Расположение каналов : Front: L R
Частота : 48,0 КГц
Частота кадров : 31,250 кадров/сек (1536 SPF)
Битовая глубина : 16 бит
Метод сжатия : С потерями
Размер потока : 64,5 Мбайт (11%)
Выравнивание : Разделение по промежуткам
Продолжительность промежутка : 40 мс. (1,00 видеокадр)
Время предзагрузки промежутка : 500 мс.
ServiceKind/String : Complete Main

pb.wtf



Скачать Свидетели через торрент http://i97.fastpic.ru/big/2017/1116/d8/0e4a19b918181b0f4abc9d3325c495d8.jpg Скачать фильм Свидетели через торрент бесплантно в хорошем качестве Описание: Следственно-аналитическое управление САУ возглавляет полковник Андрей Громов. Сотрудники управления занимаются розыском ... 10 10 3
Info! Золотая раздача, скачанное не засчитывается.
Торрент: Зарегистрирован [2018-08-15 04:09] · скачан: 16 раз
Статус: √ проверено
Размер: 45.82 GB
Как cкачать? Как скачать Свидетели через торрент | qTorrent

% Раздел Тема Автор DL S | L
Зарубежные сериалы [ 8.9 GB ] Свидетель обвинения / The Witness for the Prosecution / Сезон: 1 / Серии: 1-2 из 2 [2016 BDRip 1080p] MVO [SDI Media] bober100 Скачать
1 | 0
Наши сериалы [ 56.44 GB ] Свидетели / Сезон: 2 / Серии: 1-80 из 80 [2017 HDTVRip-AVC] bober100 Скачать
1 | 0

28-11-2019 20:33  

Отключить всю рекламу на сайте

    Дорогой пользователь! Огромная просьба, поблагодарите релизера, оцените раздачу и оставьте свои комментарий, если Вы скачали Свидетели через торрент бесплатно! Внесите свою лепту в развитие PiratBit!
    Комментировать посты могут только пользователи прошедшие не сложную регистрацию
    Показать сообщения:    

    Свидетели через торрент
    Скачать бесплатно Свидетели
    Свидетели скачать торрент
    Свидетели смотреть онлайн
    Cкачать фильм Свидетели бесплатно
    Свидетели скачать торрент в хорошем качестве
    Свидетели смотреть онлайн бесплатно в хорошем качестве


    Вы не можете начинать темы
    Вы не можете отвечать на сообщения
    Вы не можете редактировать свои сообщения
    Вы не можете удалять свои сообщения
    Вы не можете голосовать в опросах
    Вы не можете прикреплять файлы к сообщениям
    Вы можете скачивать файлы