новый адрес
Мега распродажа FORZA HORIZON 4 ULTIMATE+ВСЕ DLC+ОНЛАЙН всего за 499р. 349 руб. (супер цена). Внимание количество ограничено!!!

iTunes

1+1

iTunes

мы

iTunes

1

iTunes

Чернобыль

iTunes

Ральф против интернета

Лицензия

ПШазам

Лицензия

Оно 2

Лицензия

30
pack

ВАЖНО

!!Акция!!

Alien_RageХит недели

RePack

Resident Evil 21

ИГРА 18+

pack

RePack

jed

!!Акция!!

Alien_Rage

RePack

fifa19

RePack

Assassins Creed: Odyssey

RePack

NEED FOR SPEED™ PAYBACK

3 сезон

9 сезон

Бесстыжие 9 сезон

Все сериалы

все сериалы на PB.wtf

RePack

FAR CRY 5
Ребята, катастрофически не хватает 1900р. для оплаты серверов за Октябрь (всвязи с блокировками трафик упал в 3 раза), 1-2р., выручайте.
  

Человек идёт за солнцем (Михаил Калик) [1961, СССР, драма, детский, SATRip от AVP Studio] pb.wtf

Человек идёт за солнцем через торрент pb.wtf

Размер: 744 MB | Добавлен: 1 год 3 мес. назад | Торрент скачан:9 раз
Скачать  

15-08-2018 08:43 Человек идёт за солнцем Скачать торрент  

Человек идёт за солнцем
Страна: СССР
Производство: Молдова-филм

Жанр: драма, детский
Год выпуска: 1961
Продолжительность: 01:06:40

Перевод: Не требуется
Cубтитры: нет
Оригинальная аудиодорожка: русский

Режиссер: Михаил Калик

В ролях:
Нику Кримнус, Татьяна Бестаева, Николай Волков (старший), Георгий Георгиу, Максим Греков, Людмила Долгорукова, Евгений Евстигнеев, Валентин Зубков, Лев Круглый, Наум Кавуновский, Иосиф Левяну, Лариса Лужина, Виктор Маркин, Анатолий Папанов, Георгий Светлани, Георгиос Совчис, Валентина Телегина, Сергей Троицкий, Ион Унгуряну, Думитру Фусу...
Об актёрах подробней

Описание:
Сюжет фильма можно передать в одной фразе: поэтический рассказ о мальчике, идущем по любимому городу за солнцем и встречающем на своем пути людей — добрых и злых, чутких и равнодушных... Но то, что делают с цветом и движением камеры в этой картине режиссер Калик и оператор Дербенёв критики потом назвали "новой эстетикой советского кино". Фильм стал знаменем обновления языка советского кинематографа 60-х годов.

Исходник: DVB
Качество видео: SATRip
Формат видео: AVI

Видео: 704x528 (4:3), 25,000 кадров/сек, XviD ~ 1359 kbps avg, 0.146 bit/pixel
Аудио: 48 kHz, Dolby Digital AC3 2.0, 192 kbps

Раздача от:
Общее
Полное имя : CHelovek.idyot.za.solncem.1961.SATRip_[New-team]_by_AVP_Studio.avi
Формат : AVI
Формат/Информация : Audio Video Interleave
Размер файла : 744 Мбайт
Продолжительность : 1 ч. 6 м.
Общий поток : 1561 Кбит/сек
Программа кодирования : VirtualDubMod 1.5.10.3 | www.virtualdub-fr.org || (build 2550/release)
Библиотека кодирования : VirtualDubMod build 2550/release

Видео
Идентификатор : 0
Формат : MPEG-4 Visual
Профиль формата : Advanced Simple@L5
Настройки формата : BVOP1 / Custom Matrix
Параметр BVOP формата : 1
Параметр QPel формата : Нет
Параметр GMC формата : Без точки перехода
Параметр матрицы формата : Выборочная
Идентификатор кодека : XVID
Идентификатор кодека/Подсказка : XviD
Продолжительность : 1 ч. 6 м.
Битрейт : 1359 Кбит/сек
Ширина : 704 пикселя
Высота : 528 пикселей
Соотношение сторон : 4:3
Частота кадров : 25,000 кадров/сек
Цветовое пространство : YUV
Субдискретизация насыщенности : 4:2:0
Битовая глубина : 8 бит
Тип развёртки : Прогрессивная
Метод сжатия : С потерями
Бит/(Пиксели*Кадры) : 0.146
Размер потока : 648 Мбайт (87%)
Библиотека кодирования : XviD 73

Аудио
Идентификатор : 1
Формат : AC-3
Формат/Информация : Audio Coding 3
Идентификатор кодека : 2000
Продолжительность : 1 ч. 6 м.
Вид битрейта : Постоянный
Битрейт : 192 Кбит/сек
Каналы : 2 канала
Расположение каналов : Front: L R
Частота : 48,0 КГц
Частота кадров : 31,250 кадров/сек (1536 SPF)
Битовая глубина : 16 бит
Метод сжатия : С потерями
Размер потока : 91,5 Мбайт (12%)
Выравнивание : Разделение по промежуткам
Продолжительность промежутка : 40 мс. (1,00 видеокадр)
Время предзагрузки промежутка : 500 мс
pb.wtf



Скачать Человек идёт за солнцем через торрент http://picplus.ru/img/1808/15/01845845.png Скачать фильм Человек идёт за солнцем через торрент бесплантно в хорошем качестве Описание:Сюжет фильма можно передать в одной фразе: поэтический рассказ о мальчике, идущем по любимому городу за солнцем и встречающем на ... 9 10 1
Info! Золотая раздача, скачанное не засчитывается.
Торрент: Зарегистрирован [2018-08-15 08:43] · скачан: 9 раз
Статус: √ проверено
Размер: 744 MB
Как cкачать? Как скачать Человек идёт за солнцем через торрент | qTorrent

% Раздел Тема Автор DL S | L
Кино СССР [ 745 MB ] Человек идёт за солнцем [1961 СССР детский SATRip-AVC от AVP Studio] AVP Studio Скачать
1 | 0


>> Регистрируемся здесь <<






Отзывы и комментарии о схеме читаем и пишем здесь: ---> Отзывы и комментарии о схеме

Новые благодарочки в телеграм довольных пользователей:
скриншот   скриншот   скриншот   скриншот   скриншот
    Дорогой пользователь! Огромная просьба, поблагодарите релизера, оцените раздачу и оставьте свои комментарий, если Вы скачали Человек идёт за солнцем через торрент бесплатно! Внесите свою лепту в развитие PiratBit!
    Комментировать посты могут только пользователи прошедшие не сложную регистрацию
    Показать сообщения:    

    Человек идёт за солнцем через торрент
    Скачать бесплатно Человек идёт за солнцем
    Человек идёт за солнцем скачать торрент
    Человек идёт за солнцем смотреть онлайн
    Cкачать фильм Человек идёт за солнцем бесплатно
    Человек идёт за солнцем скачать торрент в хорошем качестве
    Человек идёт за солнцем смотреть онлайн бесплатно в хорошем качестве


    Вы не можете начинать темы
    Вы не можете отвечать на сообщения
    Вы не можете редактировать свои сообщения
    Вы не можете удалять свои сообщения
    Вы не можете голосовать в опросах
    Вы не можете прикреплять файлы к сообщениям
    Вы можете скачивать файлы