Ссылка на приватное зеркало нашего сайта всего за 1$. Внимание количество ограничено!!!

2 сезон

iTunes

1 сезон

1

2 сезон

2 сезон

iTunes

1 сезон

RePack

30

Ultimate

ВАЖНО

ИГРА 18+

pack

RePack

MK11
pack

Забери бонус

RePack

jed

!!Акция!!

Alien_Rage

RePack

fifa19

RePack

Assassins Creed: Odyssey

RePack

NEED FOR SPEED™ PAYBACK

4 сезон

9 сезон

Бесстыжие 9 сезон

Все сериалы

все сериалы на PB.wtf

RePack

FAR CRY 5
  

Thobbe Englund (ex-Sabaton) - The Draining Of Vergelmer - 2018/ FLAC/ image +.cue/ lossless/ Heavy Metal pb.wtf

Thobbe Englund через торрент pb.wtf

Размер: 278 MB | Добавлен: 2 года 3 мес. назад | Торрент скачан:10 раз
Скачать  

15-08-2018 09:33 Thobbe Englund Скачать торрент  


Thobbe Englund (ex-Sabaton) - The Draining Of Vergelmer


Год издания: 2018
Страна: Sweden
Жанр: Heavy Metal
Продолжительность: 00:34:15
Лейбл издания: METALVILLE
Страна-выпуска диска: Germany
Номер по каталогу: MVO162
Формат: FLAC
Битрейт аудио: Lossless
Тип рипа: image +.cue
Наличие сканов в содержимом раздачи: да


01. Thou Ancient, Thou Free (1:33)
02. Illuminati (4:13)
03. Heart of Metal (0:41)
04. Fingerspitzengefuehl (3:39)
05. Viking (3:24)
06. Odin's Hall (4:43)
07. The Land Where You Belong (4:27)
08. I Am a Viking (5:05)
09. Aim and Fire (2:57)
10. The Ghost & the Darkness (3:33)

Код:

Exact Audio Copy V1.0 beta 3 from 29. August 2011

EAC extraction logfile from 20. April 2018, 19:32

Thobbe Englund  / The Draining of Vergelmer

Used drive  : Optiarc DVD RW AD-7260S   Adapter: 1  ID: 1

Read mode               : Secure
Utilize accurate stream : Yes
Defeat audio cache      : Yes
Make use of C2 pointers : No

Read offset correction                      : 48
Overread into Lead-In and Lead-Out          : No
Fill up missing offset samples with silence : Yes
Delete leading and trailing silent blocks   : No
Null samples used in CRC calculations       : Yes
Used interface                              : Native Win32 interface for Win NT & 2000

Used output format : Internal WAV Routines
Sample format      : 44.100 Hz; 16 Bit; Stereo

TOC of the extracted CD

     Track |   Start  |  Length  | Start sector | End sector
    ---------------------------------------------------------
        1  |  0:00.00 |  1:33.06 |         0    |     6980
        2  |  1:33.06 |  4:13.37 |      6981    |    25992
        3  |  5:46.43 |  0:40.39 |     25993    |    29031
        4  |  6:27.07 |  3:39.16 |     29032    |    45472
        5  | 10:06.23 |  3:24.20 |     45473    |    60792
        6  | 13:30.43 |  4:42.56 |     60793    |    81998
        7  | 18:13.24 |  4:27.26 |     81999    |   102049
        8  | 22:40.50 |  5:04.53 |    102050    |   124902
        9  | 27:45.28 |  2:56.47 |    124903    |   138149
       10  | 30:42.00 |  3:33.09 |    138150    |   154133

Range status and errors

Selected range

     Filename C:\Мои документы\Thobbe Englund  - 2018 - The Draining of Vergelmer.wav

     Peak level 99.0 %
     Extraction speed 3.6 X
     Range quality 100.0 %
     Test CRC 34AFBB4B
     Copy CRC 34AFBB4B
     Copy OK

No errors occurred

AccurateRip summary

Track  1  not present in database
Track  2  not present in database
Track  3  not present in database
Track  4  not present in database
Track  5  not present in database
Track  6  not present in database
Track  7  not present in database
Track  8  not present in database
Track  9  not present in database
Track 10  not present in database

None of the tracks are present in the AccurateRip database

End of status report

Код:

REM GENRE "Heavy Metal"
REM DATE 2018
REM DISCID 8C08070A
REM COMMENT "ExactAudioCopy v1.0b3"
PERFORMER "Thobbe Englund"
TITLE "The Draining of Vergelmer"
FILE "Thobbe Englund - 2018 - The Draining of Vergelmer.flac" WAVE
  TRACK 01 AUDIO
    TITLE "Thou Ancient, Thou Free"
    PERFORMER "Thobbe Englund"
    INDEX 01 00:00:00
  TRACK 02 AUDIO
    TITLE "Illuminati"
    PERFORMER "Thobbe Englund"
    INDEX 01 01:33:06
  TRACK 03 AUDIO
    TITLE "Heart of Metal"
    PERFORMER "Thobbe Englund"
    INDEX 01 05:46:43
  TRACK 04 AUDIO
    TITLE "Fingerspitzengefuehl"
    PERFORMER "Thobbe Englund"
    INDEX 01 06:27:07
  TRACK 05 AUDIO
    TITLE "Viking"
    PERFORMER "Thobbe Englund"
    INDEX 01 10:06:23
  TRACK 06 AUDIO
    TITLE "Odin's Hall"
    PERFORMER "Thobbe Englund"
    INDEX 01 13:30:43
  TRACK 07 AUDIO
    TITLE "The Land Where You Belong"
    PERFORMER "Thobbe Englund"
    INDEX 01 18:13:24
  TRACK 08 AUDIO
    TITLE "I Am a Viking"
    PERFORMER "Thobbe Englund"
    INDEX 01 22:40:50
  TRACK 09 AUDIO
    TITLE "Aim and Fire"
    PERFORMER "Thobbe Englund"
    INDEX 01 27:45:28
  TRACK 10 AUDIO
    TITLE "The Ghost & the Darkness"
    PERFORMER "Thobbe Englund"
    INDEX 01 30:42:00




pb.wtf



Скачать Thobbe Englund через торрент http://i100.fastpic.ru/big/2018/0815/fb/16645f58b30b0db13a9bb0e5beb77efb.png Скачать фильм Thobbe Englund через торрент бесплантно в хорошем качестве Трэклист Thou Ancient, Thou Free (1:33) Illuminati (4:13) Heart of Metal (0:41) Fingerspitzengefuehl (3:39) ... 5 10 1
Торрент: Зарегистрирован [2018-08-15 09:33] · скачан: 10 раз
Статус: √ проверено
Размер: 278 MB
Как cкачать? Как скачать Thobbe Englund через торрент | qTorrent

28-11-2019 20:33  

Отключить всю рекламу на сайте

    Дорогой пользователь! Огромная просьба, поблагодарите релизера, оцените раздачу и оставьте свои комментарий, если Вы скачали Thobbe Englund через торрент бесплатно! Внесите свою лепту в развитие PiratBit!
    Комментировать посты могут только пользователи прошедшие не сложную регистрацию
    Показать сообщения:    

    Thobbe Englund через торрент
    Скачать бесплатно Thobbe Englund
    Thobbe Englund скачать торрент
    Thobbe Englund смотреть онлайн
    Cкачать фильм Thobbe Englund бесплатно
    Thobbe Englund скачать торрент в хорошем качестве
    Thobbe Englund смотреть онлайн бесплатно в хорошем качестве


    Вы не можете начинать темы
    Вы не можете отвечать на сообщения
    Вы не можете редактировать свои сообщения
    Вы не можете удалять свои сообщения
    Вы не можете голосовать в опросах
    Вы не можете прикреплять файлы к сообщениям
    Вы можете скачивать файлы