Ссылка на приватное зеркало нашего сайта всего за 1$. Внимание количество ограничено!!!

2 сезон

iTunes

1 сезон

1

2 сезон

2 сезон

iTunes

1 сезон

RePack

30

Новинка

ВАЖНО

ИГРА 18+

pack

RePack

MK11
pack

Забери бонус

RePack

jed

!!Акция!!

Alien_Rage

RePack

fifa19

RePack

Assassins Creed: Odyssey

RePack

NEED FOR SPEED™ PAYBACK

4 сезон

9 сезон

Бесстыжие 9 сезон

Все сериалы

все сериалы на PB.wtf

RePack

FAR CRY 5
  

Mad Hatter - Mad Hatter (Japanese Edition) - 2018/ FLAC/ image +.cue/ lossless/ Power Metal pb.wtf

Mad Hatter - Mad Hatter через торрент pb.wtf

Размер: 576 MB | Добавлен: 2 года 3 мес. назад | Торрент скачан:9 раз
Скачать  

15-08-2018 09:36 Mad Hatter - Mad Hatter Скачать торрент  


Mad Hatter - Mad Hatter (Japanese Edition)


Год издания: 2018
Страна: Sweden
Жанр: Power Metal
Продолжительность: 01:08:18
Лейбл издания: Spiritual Beast
Страна-выпуска диска: Japan
Номер по каталогу: IUCP-16291
Формат: FLAC
Битрейт аудио: Lossless
Тип рипа: image +.cue
Наличие сканов в содержимом раздачи: да


01. Mad Hatter Shine (8:49)
02. The Gunslinger (4:10)
03. Dancing Light (4:59)
04. Fly Away (4:09)
05. Go (5:48)
06. Phantom Riders (4:00)
07. Face The Truth (4:42)
08. Vengeance In His Mind (6:05)
09. Bring Me The Moon (4:34)
10. Mad Hatter Become (5:18)
11. Death Angel Sings (5:14)
12. Vengeance In His Mind (Demo Version) (Bonus Track) (6:03)
13. Dancing Light (80's Synth Version) (Bonus Track) (4:26)

Код:

Exact Audio Copy V1.3 from 2. September 2016

EAC extraction logfile from 23. July 2018, 19:30

Mad Hatter / Mad Hatter (Japan)

Used drive  : ATAPI   iHAS122   W   Adapter: 2  ID: 0

Read mode               : Secure
Utilize accurate stream : Yes
Defeat audio cache      : Yes
Make use of C2 pointers : No

Read offset correction                      : 48
Overread into Lead-In and Lead-Out          : No
Fill up missing offset samples with silence : Yes
Delete leading and trailing silent blocks   : No
Null samples used in CRC calculations       : Yes
Used interface                              : Installed external ASPI interface

Used output format              : User Defined Encoder
Selected bitrate                : 1024 kBit/s
Quality                         : High
Add ID3 tag                     : No
Command line compressor         : C:\Program Files\FLAC\flac.exe
Additional command line options : -V -8 -T "Date=%year%" -T "Genre=%genre%"

TOC of the extracted CD

     Track |   Start  |  Length  | Start sector | End sector
    ---------------------------------------------------------
        1  |  0:00.00 |  8:49.35 |         0    |    39709
        2  |  8:49.35 |  4:09.49 |     39710    |    58433
        3  | 12:59.09 |  4:59.17 |     58434    |    80875
        4  | 17:58.26 |  4:09.22 |     80876    |    99572
        5  | 22:07.48 |  5:48.35 |     99573    |   125707
        6  | 27:56.08 |  4:00.28 |    125708    |   143735
        7  | 31:56.36 |  4:42.02 |    143736    |   164887
        8  | 36:38.38 |  6:04.46 |    164888    |   192233
        9  | 42:43.09 |  4:34.25 |    192234    |   212808
       10  | 47:17.34 |  5:18.24 |    212809    |   236682
       11  | 52:35.58 |  5:13.73 |    236683    |   260230
       12  | 57:49.56 |  6:02.52 |    260231    |   287432
       13  | 63:52.33 |  4:26.24 |    287433    |   307406

Range status and errors

Selected range

     Filename D:\Mad Hatter - Mad Hatter (Japan).wav

     Peak level 100.0 %
     Extraction speed 3.4 X
     Range quality 100.0 %
     Test CRC BFF69A09
     Copy CRC BFF69A09
     Copy OK

No errors occurred

AccurateRip summary

Track  1  not present in database
Track  2  not present in database
Track  3  not present in database
Track  4  not present in database
Track  5  not present in database
Track  6  not present in database
Track  7  not present in database
Track  8  not present in database
Track  9  not present in database
Track 10  not present in database
Track 11  not present in database
Track 12  not present in database
Track 13  not present in database

None of the tracks are present in the AccurateRip database

End of status report

Код:

REM GENRE "Power Metal"
REM DATE 2018
REM DISCID B910020D
REM COMMENT "ExactAudioCopy v1.3"
PERFORMER "Mad Hatter"
TITLE "Mad Hatter (Japan)"
FILE "Mad Hatter - Mad Hatter (Japan).flac" WAVE
  TRACK 01 AUDIO
    TITLE "Mad Hatter Shine"
    PERFORMER "Mad Hatter"
    INDEX 01 00:00:00
  TRACK 02 AUDIO
    TITLE "The Gunslinger"
    PERFORMER "Mad Hatter"
    INDEX 00 08:47:35
    INDEX 01 08:49:35
  TRACK 03 AUDIO
    TITLE "Dancing Light"
    PERFORMER "Mad Hatter"
    INDEX 00 12:57:09
    INDEX 01 12:59:09
  TRACK 04 AUDIO
    TITLE "Fly Away"
    PERFORMER "Mad Hatter"
    INDEX 00 17:56:26
    INDEX 01 17:58:26
  TRACK 05 AUDIO
    TITLE "Go"
    PERFORMER "Mad Hatter"
    INDEX 00 22:05:48
    INDEX 01 22:07:48
  TRACK 06 AUDIO
    TITLE "Phantom Riders"
    PERFORMER "Mad Hatter"
    INDEX 00 27:54:08
    INDEX 01 27:56:08
  TRACK 07 AUDIO
    TITLE "Face The Truth"
    PERFORMER "Mad Hatter"
    INDEX 00 31:54:36
    INDEX 01 31:56:36
  TRACK 08 AUDIO
    TITLE "Vengeance In His Mind"
    PERFORMER "Mad Hatter"
    INDEX 00 36:36:38
    INDEX 01 36:38:38
  TRACK 09 AUDIO
    TITLE "Bring Me The Moon"
    PERFORMER "Mad Hatter"
    INDEX 00 42:41:09
    INDEX 01 42:43:09
  TRACK 10 AUDIO
    TITLE "Mad Hatter Become"
    PERFORMER "Mad Hatter"
    INDEX 00 47:15:34
    INDEX 01 47:17:34
  TRACK 11 AUDIO
    TITLE "Death Angel Sings"
    PERFORMER "Mad Hatter"
    INDEX 00 52:33:58
    INDEX 01 52:35:58
  TRACK 12 AUDIO
    TITLE "Vengeance In His Mind (Demo Version) (Bonus Track)"
    PERFORMER "Mad Hatter"
    INDEX 00 57:46:56
    INDEX 01 57:49:56
  TRACK 13 AUDIO
    TITLE "Dancing Light (80's Synth Version) (Bonus Track)"
    PERFORMER "Mad Hatter"
    INDEX 00 63:50:33
    INDEX 01 63:52:33




pb.wtf



Скачать Mad Hatter - Mad Hatter через торрент http://i102.fastpic.ru/big/2018/0814/8c/c5f1455f1cb189c72bfa0f82ddad918c.png Скачать фильм Mad Hatter - Mad Hatter через торрент бесплантно в хорошем качестве Трэклист Mad Hatter Shine (8:49) The Gunslinger (4:10) Dancing Light (4:59) Fly Away (4:09) Go (5:48) ... 5 10 1
Торрент: Зарегистрирован [2018-08-15 09:36] · скачан: 9 раз
Статус: √ проверено
Размер: 576 MB
Как cкачать? Как скачать Mad Hatter - Mad Hatter через торрент | qTorrent

28-11-2019 20:33  

Отключить всю рекламу на сайте

    Дорогой пользователь! Огромная просьба, поблагодарите релизера, оцените раздачу и оставьте свои комментарий, если Вы скачали Mad Hatter - Mad Hatter через торрент бесплатно! Внесите свою лепту в развитие PiratBit!
    Комментировать посты могут только пользователи прошедшие не сложную регистрацию
    Показать сообщения:    

    Mad Hatter - Mad Hatter через торрент
    Скачать бесплатно Mad Hatter - Mad Hatter
    Mad Hatter - Mad Hatter скачать торрент
    Mad Hatter - Mad Hatter смотреть онлайн
    Cкачать фильм Mad Hatter - Mad Hatter бесплатно
    Mad Hatter - Mad Hatter скачать торрент в хорошем качестве
    Mad Hatter - Mad Hatter смотреть онлайн бесплатно в хорошем качестве


    Вы не можете начинать темы
    Вы не можете отвечать на сообщения
    Вы не можете редактировать свои сообщения
    Вы не можете удалять свои сообщения
    Вы не можете голосовать в опросах
    Вы не можете прикреплять файлы к сообщениям
    Вы можете скачивать файлы