Ссылка на приватное зеркало всего за 1$. Внимание количество ограничено!!!

OK

1+1

iTunes

мы

OK

1

WEB-DLRip

Джокер

Пифагор

Ведьмак / The Witcher сериал

iTunes

ПШазам

ОК

Оно 2

iTunes

30
pack

Вам бонус

ВАЖНО

!!Акция!!

Alien_RageХит недели

RePack

Resident Evil 21

ИГРА 18+

pack

RePack

jed

RePack

fifa19

RePack

Assassins Creed: Odyssey

RePack

NEED FOR SPEED™ PAYBACK

4 сезон

9 сезон

Бесстыжие 9 сезон

Все сериалы

все сериалы на PB.wtf

RePack

FAR CRY 5
  

Искаженный / Distorted (Роб В. Кинг) [2018, боевик, триллер, детектив, WEB-DL 720p] DUB [Line] pb.wtf

Искаженный через торрент pb.wtf

Размер: 3.26 GB | Добавлен: 1 год 5 мес. назад | Торрент скачан:26 раз
Скачать  

15-08-2018 09:40 Искаженный Скачать торрент  

Искаженный / Distorted
Год выпуска: 2018
Страна: Канада
Жанр: боевик, триллер, детектив
Продолжительность: 01:30:10
Перевод: Дублированный | Line
Субтитры: отсутствуют

Режиссер: Роб В. Кинг

rating

В ролях:

Кристина Риччи, Джон Кьюсак, Брендан Флетчер, Виселос Реон Шеннон, Николь Энтони, Оливер Райс, Гиги Джекман, Майя Милькович, Бенжамин ДеУолт, Scott Olynek

Описание:

В центре сюжета - художница с биполярным расстройством, недавно потерявшая ребёнка. Из-за тяжёлых воспоминаний она переезжает вместе с мужем из собственного дома в квартиру в многоэтажном здании, оснащённом супертехнологичной системой безопасности. Вскоре героиня замечает, что с другими жителями многоэтажки творится что-то неладное, и нанимает журналиста из отдела расследований.

Качество: WEB-DL 720p
Формат: MKV

Видео: h.264, 4 786 kb/s, 1280x532
Аудио#1: Русский (AC3, 2 ch, 384 Кбит/с)
скриншот  скриншот  скриншот  

Общее
Уникальный идентификатор : 192638253048980861329278015102045478559 (0x90ECC72AE2F923D8B7DBCD281B415E9F)
Полное имя : D:\Distorted.2018.D.WEB-DL.72OP_KOSHARA.mkv
Формат : Matroska
Версия формата : Version 2
Размер файла : 3,26 Гбайт
Продолжительность : 1 ч. 30 м.
Режим общего битрейта : Переменный
Общий поток : 5172 Кбит/сек
Дата кодирования : UTC 2018-08-08 00:51:53
Программа кодирования : mkvmerge v8.3.0 ('Over the Horizon') 64bit
Библиотека кодирования : libebml v1.3.1 + libmatroska v1.4.2

Видео
Идентификатор : 1
Формат : AVC
Формат/Информация : Advanced Video Codec
Профиль формата : High@L4.1
Параметр CABAC формата : Да
Параметр RefFrames формата : 4 кадра
Идентификатор кодека : V_MPEG4/ISO/AVC
Продолжительность : 1 ч. 30 м.
Вид битрейта : Переменный
Битрейт : 4786 Кбит/сек
Максимальный битрейт : 5500 Кбит/сек
Ширина : 1280 пикселей
Высота : 532 пикселя
Соотношение сторон : 2,40:1
Режим частоты кадров : Постоянный
Частота кадров : 23,976 (24000/1001) кадра/сек
Стандарт вещания : Component
Цветовое пространство : YUV
Субдискретизация насыщенности : 4:2:0
Битовая глубина : 8 бит
Тип развёртки : Прогрессивная
Бит/(Пиксели*Кадры) : 0.287
Размер потока : 2,95 Гбайт (91%)
Default : Да
Forced : Нет
Цветовой диапазон : Limited
Основные цвета : BT.709
Характеристики трансфера : BT.709
Коэффициенты матрицы : BT.709

Аудио
Идентификатор : 2
Формат : AC-3
Формат/Информация : Audio Coding 3
Расширение режима : CM (complete main)
Параметр Endianness формата : Big
Идентификатор кодека : A_AC3
Продолжительность : 1 ч. 30 м.
Вид битрейта : Постоянный
Битрейт : 384 Кбит/сек
Каналы : 2 канала
Расположение каналов : Front: L R
Частота : 48,0 КГц
Частота кадров : 31,250 кадров/сек (1536 spf)
Метод сжатия : С потерями
Размер потока : 248 Мбайт (7%)
Default : Да
Forced : Нет

pb.wtf



Скачать Искаженный через торрент http://img11.lostpic.net/2018/07/02/9ccb892c54d7e7a0c78e5ef228c45a72.jpg Скачать фильм Искаженный через торрент бесплантно в хорошем качестве Описание: В центре сюжета - художница с биполярным расстройством, недавно потерявшая ребёнка. Из-за тяжёлых воспоминаний она переезжает ... 10 10 2
Торрент: Зарегистрирован [2018-08-15 09:40] · скачан: 26 раз
Статус: T временная
Размер: 3.26 GB
Как cкачать? Как скачать Искаженный через торрент | qTorrent

% Раздел Тема Автор DL S | L
T Фильмы 2018 [DVDrip, WEB-DLRip, HDrip] (DUB, MVO) [ 1.46 GB ] Искаженный / Distorted [2018 BDRip-AVC] MVO [HDRezka Studio] bober100 Скачать
1 | 0
T Фильмы (мультфильмы) cо спонсором показа (Новинки AVI/MKV) [ 3.49 GB ] Искаженный / Distorted [2018 WEB-DL 1080p] DUB [Line] bober100 Скачать
1 | 0
T Фильмы (мультфильмы) cо спонсором показа (Новинки AVI/MKV) [ 1.37 GB ] Искаженный / Distorted [2018 WEB-DLRip] DUB [Line] bober100 Скачать
1 | 0
T R.G. Resident & PiratVoice - Фильмы, Видео [ 1.37 GB ] Искаженный / Distorted [2018 WEB-DLRip от R.G. Resident] MVO [HDRezka Studio] -Lexx- Скачать
1 | 0
T Фильмы (WEB-DL 720p, 1080p) [ 2.77 GB ] Искаженный / Distorted [2018 WEB-DL 720p] MVO [HDRezka Studio] bober100 Скачать
1 | 0
T Фильмы (WEB-DL 720p, 1080p) [ 2.84 GB ] Искаженный / Distorted [2018 WEB-DL 1080p] MVO [HDRezka Studio] bober100 Скачать
1 | 0

28-11-2019 20:33  

Отключить всю рекламу на сайте

    Дорогой пользователь! Огромная просьба, поблагодарите релизера, оцените раздачу и оставьте свои комментарий, если Вы скачали Искаженный через торрент бесплатно! Внесите свою лепту в развитие PiratBit!
    Комментировать посты могут только пользователи прошедшие не сложную регистрацию
    Показать сообщения:    

    Искаженный через торрент
    Скачать бесплатно Искаженный
    Искаженный скачать торрент
    Искаженный смотреть онлайн
    Cкачать фильм Искаженный бесплатно
    Искаженный скачать торрент в хорошем качестве
    Искаженный смотреть онлайн бесплатно в хорошем качестве


    Вы не можете начинать темы
    Вы не можете отвечать на сообщения
    Вы не можете редактировать свои сообщения
    Вы не можете удалять свои сообщения
    Вы не можете голосовать в опросах
    Вы не можете прикреплять файлы к сообщениям
    Вы можете скачивать файлы