2 сезон

iTunes

WEBRip

1

2 сезон

iTunes

1 сезон

1 сезон

RePack

30

Новинка

ВАЖНО

ИГРА 18+

pack

RePack

MK11
pack

Легкие деньги

RePack

jed

RePack

fifa19

RePack

RDR2

RePack

NEED FOR SPEED™ PAYBACK

4 сезон

9 сезон

Бесстыжие 9 сезон

Все сериалы

все сериалы на PB.wtf

RePack

FAR CRY 5

Anonymous, доброй ночи, мы не успеваем собрать деньги на оплату серверов за февраль, помогите нам пожалуйста в это трудное время. В качестве благодарности мы отключим Вам всю рекламу на сайте (укажите свой ник в строку Ваше имя)!

×
  
Magnet ссылка

Контроль / Искаженный / Distorted (Роб В. Кинг) [2018, боевик, триллер, детектив, BDRip 1080p] MVO (rus, ukr) [iTunes] pb.wtf

Контроль через торрент pb.wtf

Раздают: 1 [ 0 KB/s ]
Размер: 9.9 GB | Добавлен: 26 д. назад | Торрент скачан:27 раз
Скачать  

15-08-2018 09:40 Контроль Скачать торрент  

Контроль | Искаженный | Distorted
Год выпуска: 2018
Страна: Канада
Студия: Bridgegate Pictures, Minds Eye Entertainment
Жанр: боевик, триллер, детектив
Продолжительность: 01:30:10
Перевод:
Профессиональное (многоголосое) | Русский язык | iTunes
Профессиональное (многоголосое) | Украинский язык | iTunes
Субтитры: Английские (Full, SDH)

Режиссер: Роб В. Кинг

rating

В ролях: Кристина Риччи, Джон Кьюсак, Брендан Флетчер, Виселос Реон Шеннон, Николь Энтони, Оливер Райс, Гиги Джекман, Майя Милькович, Бенжамин ДеУолт

Описание: В центре сюжета - художница с биполярным расстройством, недавно потерявшая ребёнка. Из-за тяжёлых воспоминаний она переезжает вместе с мужем из собственного дома в квартиру в многоэтажном здании, оснащённом супертехнологичной системой безопасности. Вскоре героиня замечает, что с другими жителями многоэтажки творится что-то неладное, и нанимает журналиста из отдела расследований.

Качество: BDRip 1080p
Формат: MKV

Видео: MPEG-4 AVC, 14.1 Mb/s, 1920x804, 23.976 fps
Аудио #1: 48 kHz, AC3 Dolby Digital, 3/2 (L, C, R, l, r) + LFE ch, ~384 kbps | русский
Аудио #2: 48 kHz, AC3 Dolby Digital, 3/2 (L, C, R, l, r) + LFE ch, ~384 kbps | украинский
Аудио #3: 48 kHz, DTS, 3/2 (L, C, R, l, r) + LFE ch, ~1509 kbps | английский
скриншот  скриншот  скриншот  скриншот  

Complete name: Kontrol.2018.1080p.BluRay.ELEKTRI4KA.UNIONGANG.mkv
Format: Matroska
Format version: Version 4 / Version 2
File size: 9.90 GiB
Duration: 1 h 26 min
Overall bit rate: 16.4 Mb/s
Movie name: Kontrol.2018.1080p.BluRay.ELEKTRI4KA.UNIONGANG.
Encoded date: UTC 2021-01-30 09:25:03
Writing application: mkvmerge v8.3.0 ('Over the Horizon') 64bit
Writing library: libebml v1.3.1 + libmatroska v1.4.2

Video
ID: 1
Format: AVC
Format/Info: Advanced Video Codec
Format profile: High@L4.1
Format settings, CABAC: Yes
Format settings, Reference frames: 5 frames
Codec ID: V_MPEG4/ISO/AVC
Duration: 1 h 26 min
Bit rate: 14.1 Mb/s
Width: 1 920 pixels
Height: 804 pixels
Display aspect ratio: 2.40:1
Frame rate mode: Constant
Frame rate: 23.976 (24000/1001) FPS
Color space: YUV
Chroma subsampling: 4:2:0
Bit depth: 8 bits
Scan type: Progressive
Bits/(Pixel*Frame): 0.382
Stream size: 8.53 GiB (86%)
Title: Kontrol.2018.1080p.BluRay.ELEKTRI4KA.UNIONGANG.
Writing library: x264 core 157 r2932 303c484
Encoding settings: cabac=1 / ref=5 / deblock=1:-3:-3 / analyse=0x3:0x133 / me=umh / subme=10 / psy=1 / psy_rd=1.00:0.00 / mixed_ref=1 / me_range=32 / chroma_me=1 / trellis=2 / 8x8dct=1 / cqm=0 / deadzone=21, 11 / fast_pskip=0 / chroma_qp_offset=-2 / threads=12 / lookahead_threads=2 / sliced_threads=0 / nr=0 / decimate=0 / interlaced=0 / bluray_compat=0 / constrained_intra=0 / bframes=8 / b_pyramid=2 / b_adapt=2 / b_bias=0 / direct=3 / weightb=1 / open_gop=0 / weightp=2 / keyint=250 / keyint_min=23 / scenecut=40 / intra_refresh=0 / rc_lookahead=60 / rc=2pass / mbtree=0 / bitrate=14148 / ratetol=1.0 / qcomp=0.60 / qpmin=0 / qpmax=69 / qpstep=4 / cplxblur=20.0 / qblur=0.5 / vbv_maxrate=50000 / vbv_bufsize=62500 / nal_hrd=none / filler=0 / ip_ratio=1.30 / pb_ratio=1.20 / aq=3:0.80
Language: English
Default: Yes
Forced: No

Audio #1
ID: 2
Format: AC-3
Format/Info: Audio Coding 3
Mode extension: CM (complete main)
Format settings, Endianness: Big
Codec ID: A_AC3
Duration: 1 h 26 min
Bit rate mode: Constant
Bit rate: 384 kb/s
Channel(s): 6 channels
Channel positions: Front: L C R, Side: L R, LFE
Sampling rate: 48.0 kHz
Frame rate: 31.250 FPS (1536 spf)
Bit depth: 16 bits
Compression mode: Lossy
Stream size: 237 MiB (2%)
Title: MVO (iTunes)
Language: Russian
Default: Yes
Forced: No

Audio #2
ID: 3
Format: AC-3
Format/Info: Audio Coding 3
Mode extension: CM (complete main)
Format settings, Endianness: Big
Codec ID: A_AC3
Duration: 1 h 26 min
Bit rate mode: Constant
Bit rate: 384 kb/s
Channel(s): 6 channels
Channel positions: Front: L C R, Side: L R, LFE
Sampling rate: 48.0 kHz
Frame rate: 31.250 FPS (1536 spf)
Bit depth: 16 bits
Compression mode: Lossy
Stream size: 237 MiB (2%)
Title: MVO (iTunes)
Language: Ukrainian
Default: No
Forced: No

Audio #3
ID: 4
Format: DTS
Format/Info: Digital Theater Systems
Mode: 16
Format settings, Endianness: Big
Codec ID: A_DTS
Duration: 1 h 26 min
Bit rate mode: Constant
Bit rate: 1 509 kb/s
Channel(s): 6 channels
Channel positions: Front: L C R, Side: L R, LFE
Sampling rate: 48.0 kHz
Frame rate: 93.750 FPS (512 spf)
Bit depth: 24 bits
Compression mode: Lossy
Stream size: 932 MiB (9%)
Title: DTS
Language: English
Default: No
Forced: No

Text #1
ID: 5
Format: UTF-8
Codec ID: S_TEXT/UTF8
Codec ID/Info: UTF-8 Plain Text
Duration: 1 h 20 min
Bit rate: 29 b/s
Count of elements: 548
Stream size: 17.3 KiB (0%)
Language: English
Default: Yes
Forced: No

Text #2
ID: 6
Format: UTF-8
Codec ID: S_TEXT/UTF8
Codec ID/Info: UTF-8 Plain Text
Duration: 1 h 21 min
Bit rate: 34 b/s
Count of elements: 740
Stream size: 20.9 KiB (0%)
Title: SDH
Language: English
Default: No
Forced: No

Menu
00:00:00.000: en:00:00:00.000
00:04:53.960: en:00:04:53.960
00:10:40.139: en:00:10:40.139
00:20:39.947: en:00:20:39.947
00:29:38.944: en:00:29:38.944
00:39:55.351: en:00:39:55.351
00:51:01.517: en:00:51:01.517
01:00:42.180: en:01:00:42.180
01:10:00.571: en:01:10:00.571
01:15:00.287: en:01:15:00.287
01:19:52.871: en:01:19:52.871
01:22:16.515: en:01:22:16.515

pb.wtf



Скачать Контроль через торрент https://b.radikal.ru/b30/2101/f9/1c40c19135d1.png Скачать фильм Контроль через торрент бесплантно в хорошем качестве Описание: В центре сюжета - художница с биполярным расстройством, недавно потерявшая ребёнка. Из-за тяжёлых воспоминаний она переезжает ... 10 10 5
Торрент: Зарегистрирован [2021-02-01 00:36] · скачан: 27 раз
Статус: √ проверено
Размер: 9.9 GB
Как cкачать? Как скачать Контроль через торрент | UTorrent

% Раздел Тема Автор DL S | L
Фильмы 2018 [DVDrip, WEB-DLRip, HDrip] (DUB, MVO) [ 2.05 GB ] Контроль / Искаженный / Distorted [2018 HDRip-AVC] [MVO] от MediaBit Lithuania Скачать
4 | 0
Фильмы 2018 [DVDrip, WEB-DLRip, HDrip] (DUB, MVO) [ 1.45 GB ] Контроль / Искаженный / Distorted [2018 BDRip] MVO [HDRezka Studio] bober100 Скачать
1 | 0
Фильмы [HD 720p, 1080p] (Хороший звук DUB, MVO) [ 4.11 GB ] Контроль / Искаженный / Distorted [2018 BDRip 720p] MVO bober100 Скачать
1 | 0

28-11-2019 20:33  

Отключить всю рекламу на сайте

    Дорогой пользователь! Огромная просьба, поблагодарите релизера, оцените раздачу и оставьте свои комментарий, если Вы скачали Контроль через торрент бесплатно! Внесите свою лепту в развитие PiratBit!
    Комментировать посты могут только пользователи прошедшие не сложную регистрацию
    Показать сообщения:    

    Контроль через торрент
    Скачать бесплатно Контроль
    Контроль скачать торрент
    Контроль смотреть онлайн
    Cкачать фильм Контроль бесплатно
    Контроль скачать торрент в хорошем качестве
    Контроль смотреть онлайн бесплатно в хорошем качестве


    Вы не можете начинать темы
    Вы не можете отвечать на сообщения
    Вы не можете редактировать свои сообщения
    Вы не можете удалять свои сообщения
    Вы не можете голосовать в опросах
    Вы не можете прикреплять файлы к сообщениям
    Вы можете скачивать файлы