Ссылка на приватное зеркало всего за 1$. Внимание количество ограничено!!!

OK

1+1

iTunes

мы

OK

1

WEB-DLRip

Джокер

Пифагор

Ведьмак / The Witcher сериал

iTunes

ПШазам

ОК

Оно 2

iTunes

30
pack

Вам бонус

ВАЖНО

!!Акция!!

Alien_RageХит недели

RePack

Resident Evil 21

ИГРА 18+

pack

RePack

jed

RePack

fifa19

RePack

Assassins Creed: Odyssey

RePack

NEED FOR SPEED™ PAYBACK

4 сезон

9 сезон

Бесстыжие 9 сезон

Все сериалы

все сериалы на PB.wtf

RePack

FAR CRY 5
  

Конец лета / End of Summer / Xi xiao he de xia tian (Чжоу Цуань) [2017, драма, семейный, WEB-DL 720p] MVO [КОЛОБОК] pb.wtf

Конец лета через торрент pb.wtf

Размер: 3.45 GB | Добавлен: 1 год 5 мес. назад | Торрент скачан:10 раз
Скачать  

15-08-2018 10:14 Конец лета Скачать торрент  

Конец лета / End of Summer / Xi xiao he de xia tian
Год выпуска: 2017
Страна: Китай
Жанр: драма, семейный
Продолжительность: 01:44:47
Перевод: Любительский (многоголосый) | КОЛОБОК
Субтитры: китайские, английские (вшитые)

Режиссер: Чжоу Цуань

rating

В ролях:

Тань Чжо, Гу Баомин, Рун Цзышань, Чжан Сунвэнь, Дун Цин

Описание:

Летом 1998 года Китай захлестнула волна футбольной лихорадки. Пятиклассник Сяоян ужасно хочет попасть в школьную команду, но деспотичный отец не позволяет ему тратить время на футбол. Живущий по соседству дедушка Чжэн соглашается тайком тренировать мальчика. Неожиданно мальчик обнаруживает, что отец завёл роман с его новой учительницей. А тут ещё дедушка Чжэн чувствует необходимость вернуться к своей семье, живущей в другой части страны. Сяоян решает убежать вместе с ним.

Качество: WEB-DL 720p
Формат: MKV

Видео: h.264, 4 328 Кбит/с, 1280x688
Аудио#1: Русский, (AC3, 2 ch, 384 Кбит/с)
скриншот  скриншот  скриншот  

Общее
Уникальный идентификатор : 244003213667008100870116534514427662040 (0xB7914F4029BF0E149E68F1BE94E08ED8)
Полное имя : D:\End.of.Summer.2017.Pk.WEB-DL.72Op.mkv
Формат : Matroska
Версия формата : Version 2
Размер файла : 3,45 Гбайт
Продолжительность : 1 ч. 44 м.
Режим общего битрейта : Переменный
Общий поток : 4713 Кбит/сек
Дата кодирования : UTC 2018-08-08 02:51:10
Программа кодирования : mkvmerge v8.3.0 ('Over the Horizon') 64bit
Библиотека кодирования : libebml v1.3.1 + libmatroska v1.4.2

Видео
Идентификатор : 1
Формат : AVC
Формат/Информация : Advanced Video Codec
Профиль формата : High@L4.1
Параметр CABAC формата : Да
Параметр RefFrames формата : 4 кадра
Идентификатор кодека : V_MPEG4/ISO/AVC
Продолжительность : 1 ч. 44 м.
Вид битрейта : Переменный
Битрейт : 4328 Кбит/сек
Максимальный битрейт : 5000 Кбит/сек
Ширина : 1280 пикселей
Высота : 688 пикселей
Соотношение сторон : 1,85:1
Режим частоты кадров : Постоянный
Частота кадров : 23,976 (24000/1001) кадра/сек
Стандарт вещания : Component
Цветовое пространство : YUV
Субдискретизация насыщенности : 4:2:0
Битовая глубина : 8 бит
Тип развёртки : Прогрессивная
Бит/(Пиксели*Кадры) : 0.201
Размер потока : 3,10 Гбайт (90%)
Default : Да
Forced : Нет
Цветовой диапазон : Limited
Основные цвета : BT.709
Характеристики трансфера : BT.709
Коэффициенты матрицы : BT.709

Аудио
Идентификатор : 2
Формат : AC-3
Формат/Информация : Audio Coding 3
Расширение режима : CM (complete main)
Параметр Endianness формата : Big
Идентификатор кодека : A_AC3
Продолжительность : 1 ч. 44 м.
Вид битрейта : Постоянный
Битрейт : 384 Кбит/сек
Каналы : 2 канала
Расположение каналов : Front: L R
Частота : 48,0 КГц
Частота кадров : 31,250 кадров/сек (1536 spf)
Метод сжатия : С потерями
Размер потока : 288 Мбайт (8%)
Default : Да
Forced : Нет

pb.wtf



Скачать Конец лета через торрент http://img11.lostpic.net/2018/08/15/d00781d344f26c11fad80225f2eceb1c.jpg Скачать фильм Конец лета через торрент бесплантно в хорошем качестве Описание: Летом 1998 года захлестнула волна футбольной лихорадки. Пятиклассник Сяоян ужасно хочет попасть в школьную команду, но ... 10 10 2
Торрент: Зарегистрирован [2018-08-15 10:14] · скачан: 10 раз
Статус: T временная
Размер: 3.45 GB
Как cкачать? Как скачать Конец лета через торрент | qTorrent

% Раздел Тема Автор DL S | L
T Фильмы (мультфильмы) cо спонсором показа (Новинки AVI/MKV) [ 1.37 GB ] Конец лета / End of Summer / Xi xiao he de xia tian [2017 WEB-DLRip] MVO [КОЛОБОК] bober100 Скачать
1 | 0

28-11-2019 20:33  

Отключить всю рекламу на сайте

15-08-2018 10:55 Конец лета Скачать торрент  

нужно было 31 августа выложить pb.wtf



    Дорогой пользователь! Огромная просьба, поблагодарите релизера, оцените раздачу и оставьте свои комментарий, если Вы скачали Конец лета через торрент бесплатно! Внесите свою лепту в развитие PiratBit!
    Комментировать посты могут только пользователи прошедшие не сложную регистрацию
    Показать сообщения:    

    Конец лета через торрент
    Скачать бесплатно Конец лета
    Конец лета скачать торрент
    Конец лета смотреть онлайн
    Cкачать фильм Конец лета бесплатно
    Конец лета скачать торрент в хорошем качестве
    Конец лета смотреть онлайн бесплатно в хорошем качестве


    Вы не можете начинать темы
    Вы не можете отвечать на сообщения
    Вы не можете редактировать свои сообщения
    Вы не можете удалять свои сообщения
    Вы не можете голосовать в опросах
    Вы не можете прикреплять файлы к сообщениям
    Вы можете скачивать файлы