2 сезон

iTunes

1 сезон

1

iTunes

iTunes

iTunes

1 сезон

RePack

30

ИГРА 18+

pack

ВАЖНО

!!Акция!!

Alien_RageХит недели

RePack

MK11
pack

Забери бонус

RePack

jed

!!Акция!!

Alien_Rage

RePack

fifa19

RePack

Assassins Creed: Odyssey

RePack

NEED FOR SPEED™ PAYBACK

4 сезон

9 сезон

Бесстыжие 9 сезон

Все сериалы

все сериалы на PB.wtf

RePack

FAR CRY 5
  

Возмездие / Серия 1-4 из 4 (Олег Фесенко) [2018 г., Мелодрама, SATRip] pb.wtf

Возмездие через торрент pb.wtf

Размер: 2.41 GB | Добавлен: 2 года 2 мес. назад | Торрент скачан:87 раз
Скачать  

15-08-2018 11:35 Возмездие Скачать торрент  

Возмездие / Серия 1-4 из 4
Год выпуска: 2018
Страна: Россия
Жанр: Мелодрама
Продолжительность: 4 х 00:46:00
Субтитры: Нет

Режиссер: Олег Фесенко

В ролях: Валерий Николаев, Дарья Савельева, Иван Товмасян, Юрий Назаров, Никита Зверев

Описание: Череда грустных событий приходит в дом молодоженов Маруси и Павла: на грани банкротства их семейный бизнес – ресторан сгорает, умирает отец, Павла сбивает машина, а затем на него происходит покушение. Казалось бы, что может быть хуже?

Павел не оставляет надежды вернуть нормальную жизнь и решает получить отцовский дом, обменяв на него… собственную жену. А сделку заключает с родным братом. Расследование о покушении на жизнь Павла поручают молодому и очень въедливому следователю Денису Горохову, который сразу же находит подозреваемого. Но так ли все просто, как кажется на первый взгляд?

Качество: SATRip
Формат: AVI
Видео кодек: XviD
Аудио кодек: MP3
Видео: XviD, 1800 Кбит/с, 720x400
Аудио#1: МР3, 2 ch, 128 Кбит/с
скриншот   скриншот   скриншот   скриншот  

General
Complete name : H:\релизы.торрентфайл\ВОЗМЕЗДИЕ\Vozmezdie.01.[riperam.org].avi
Format : AVI
Format/Info : Audio Video Interleave
File size : 609 MiB
Duration : 43mn 56s
Overall bit rate : 1 938 Kbps
Writing application : VirtualDubMod 1.5.10.3 (build 2550/release)
Writing library : VirtualDubMod build 2550/release

Video
ID : 0
Format : MPEG-4 Visual
Format profile : Advanced Simple@L5
Format settings, BVOP : 2
Format settings, QPel : No
Format settings, GMC : No warppoints
Format settings, Matrix : Default (H.263)
Codec ID : XVID
Codec ID/Hint : XviD
Duration : 43mn 56s
Bit rate : 1 800 Kbps
Width : 720 pixels
Height : 400 pixels
Display aspect ratio : 16:9
Frame rate : 25.000 fps
Color space : YUV
Chroma subsampling : 4:2:0
Bit depth : 8 bits
Scan type : Progressive
Compression mode : Lossy
Bits/(Pixel*Frame) : 0.250
Stream size : 566 MiB (93%)
Writing library : XviD 1.2.1 (UTC 2008-12-04)

Audio
ID : 1
Format : MPEG Audio
Format version : Version 1
Format profile : Layer 3
Codec ID : 55
Codec ID/Hint : MP3
Duration : 43mn 56s
Bit rate mode : Constant
Bit rate : 128 Kbps
Channel(s) : 2 channels
Sampling rate : 48.0 KHz
Compression mode : Lossy
Stream size : 40.2 MiB (7%)
Alignment : Aligned on interleaves
Interleave, duration : 40 ms (1.00 video frame)
Interleave, preload duration : 504 ms
Writing library : LAME3.99r
Encoding settings : -m s -V 4 -q 2 -lowpass 17 -b 128

Внимание! Раздача ведётся путём добавления новых серий; при каждом добавлении создётся новый торрент. Чтобы начать докачку новой серии, пользователям необходимо сделать следующее:
  • Остановить скачивание,
  • Удалить старый торрент у себя из клиента (старые серии удалять не надо),
  • Скачать новый торрент и запустить его у себя в клиенте вместо старого, при этом указать клиенту путь в старую папку куда и должно происходить скачивание новых серий.
Ваш клиент при этом должен произвести хеширование (проверку) старой папки (если не производит сам - помогите ему сделать это), и будет докачивать только те серии которых у вас ещё нет. Старые серии при этом не удаляются, а продолжают раздаваться!

Eсли вы уже удалили старые серии, то предотвратить повторную закачку старых серий можно, отжав галочку в соответсвующих местах при запуске нового торрента. По возможности, желательно не удалять старые серии как можно дольше чтобы релизёр не столько продолжал раздавать старые серии, а смог сконцентрироваться на новых.
pb.wtf



Скачать Возмездие через торрент http://pic1.kartinco.top/images/11/mvg4r.jpg Скачать фильм Возмездие через торрент бесплантно в хорошем качестве Описание: Череда грустных событий приходит в дом молодоженов Маруси и Павла: на грани банкротства их семейный бизнес – ресторан сгорает, ... 10 10 3
Торрент: Зарегистрирован [2018-08-15 13:19] · скачан: 87 раз
Статус: √ проверено
Размер: 2.41 GB
Как cкачать? Как скачать Возмездие через торрент | qTorrent

% Раздел Тема Автор DL S | L
Наши сериалы [ 2.15 GB ] Возмездие / Серии: 1-4 из 4 [2018 остросюжетная WEB-DLRip] bober100 Скачать
1 | 0
Наши сериалы [ 2.4 GB ] Возмездие / Серии: 1-4 из 4 [2019 WEB-DLRip-AVC] bober100 Скачать
1 | 0
Наши сериалы [ 2.41 GB ] Возмездие / Серии: 1-4 из 4 [2019 WEB-DLRip] bober100 Скачать
2 | 0
Наши сериалы [ 5.59 GB ] Возмездие / Серии: 1-4 из 4 [2019 WEB-DL 1080p] bober100 Скачать
2 | 0
Возмездие [ 12.35 GB ] Возмездие / Месть / Revenge / Сезон: 4 / Серии: 1-23 из 23 [2014 WEB-DLRip] [DVO] killermax2013 Скачать
1 | 0

28-11-2019 20:33  

Отключить всю рекламу на сайте

    Дорогой пользователь! Огромная просьба, поблагодарите релизера, оцените раздачу и оставьте свои комментарий, если Вы скачали Возмездие через торрент бесплатно! Внесите свою лепту в развитие PiratBit!
    Комментировать посты могут только пользователи прошедшие не сложную регистрацию
    Показать сообщения:    

    Возмездие через торрент
    Скачать бесплатно Возмездие
    Возмездие скачать торрент
    Возмездие смотреть онлайн
    Cкачать фильм Возмездие бесплатно
    Возмездие скачать торрент в хорошем качестве
    Возмездие смотреть онлайн бесплатно в хорошем качестве


    Вы не можете начинать темы
    Вы не можете отвечать на сообщения
    Вы не можете редактировать свои сообщения
    Вы не можете удалять свои сообщения
    Вы не можете голосовать в опросах
    Вы не можете прикреплять файлы к сообщениям
    Вы можете скачивать файлы