Ссылка на приватное зеркало нашего сайта всего за 1$. Внимание количество ограничено!!!

2 сезон

iTunes

1 сезон

1

2 сезон

2 сезон

iTunes

1 сезон

RePack

30

Новинка

ВАЖНО

ИГРА 18+

pack

RePack

MK11
pack

Забери бонус

RePack

jed

!!Акция!!

Alien_Rage

RePack

fifa19

RePack

Assassins Creed: Odyssey

RePack

NEED FOR SPEED™ PAYBACK

4 сезон

9 сезон

Бесстыжие 9 сезон

Все сериалы

все сериалы на PB.wtf

RePack

FAR CRY 5
  

Белая ворона / Insecure / Сезон: 3 / Серии: 1-8 из 8 (Мелина Матсукас, Кевин Брэй, Сесиль Эмеке) [2018, Комедия, WEB-DL 720p] MVO [Jaskier] pb.wtf

Белая ворона через торрент pb.wtf

Размер: 7.15 GB | Добавлен: 2 года 2 мес. назад | Торрент скачан:2 раза
Скачать  

15-08-2018 12:44 Белая ворона Скачать торрент  

Белая ворона / Insecure Год выпуска: 2018
Страна: США
Жанр: Комедия
Продолжительность: ~00:37:00
Перевод: Профессиональный (многоголосый закадровый) | Jaskier
Субтитры: английские

Режиссёр: Мелина Матсукас, Кевин Брэй, Сесиль Эмеке

В ролях:

Иса Рэй, Ивонн Орджи, Мэйсон МакКалли, Кэти Куртин, Сухата Рэй, Наташа Ротуэлл, Джей Эллис, Лиза Джойс

Описание:

Героинями данной комедии являются две обычные чернокожие американки. Обеим из них уже стукнуло тридцать лет, они продолжают предаваться грезам о счастье, хотя сценарий жизни идет не совсем по их велению. Чтобы завязать новое знакомство или податься на поиски любимого человека, главным героиням иногда приходится встречаться с довольно рискованными ситуациями. Кроме того, даже если парень и найден, то весьма сложно его подбить на поиски работы, ведь у него сейчас грустный период. Да и самим с профессией трудно, но самое важное - это не сдаваться...



Качество: WEB-DL 720p
Формат: MKV

Видео: 1280x720 (16:9) | X264 | ~2700 kbps | 23.976 fps
Аудио 1: AC3, 48,0 КГц, 6 ch, 384 kbps - Rus
Аудио 2: AC3, 48,0 КГц, 6 ch, 384 kbps - Eng


Реклама: Присутствует звуковая (два раза в начале и конце по 10 сек.)
Переведено и озвучено: студией Jaskier
Общее
Уникальный идентификатор                 : 224276992631208537739483078864150120017 (0xA8BA2D76D639F3CA851F0209BB76C651)
Полное имя                               : D:\Яскъер\Insecure. Season 3 (WEB-DL l 720p l Jaskier)\Insecure.S03E01.720p.WEB-DL.DD5.1.H.264-Jaskier.mkv
Формат                                   : Matroska
Версия формата                           : Version 2
Размер файла                             : 907 Мбайт
Продолжительность                        : 36 м. 32 с.
Общий поток                              : 3469 Кбит/сек
Дата кодирования                         : UTC 2018-08-15 11:13:30
Программа кодирования                    : mkvmerge v7.8.0 ('River Man') 32bit built on Apr  3 2015 12:11:22
Библиотека кодирования                   : libebml v1.3.1 + libmatroska v1.4.2

Видео
Идентификатор                            : 1
Формат                                   : AVC
Формат/Информация                        : Advanced Video Codec
Профиль формата                          : High@L3.1
Настройки формата                        : CABAC / 5 Ref Frames
Параметр CABAC формата                   : Да
Параметр RefFrames формата               : 5 кадров
Идентификатор кодека                     : V_MPEG4/ISO/AVC
Продолжительность                        : 36 м. 32 с.
Битрейт                                  : 2632 Кбит/сек
Ширина                                   : 1280 пикселей
Высота                                   : 720 пикселей
Соотношение сторон                       : 16:9
Режим частоты кадров                     : Постоянный
Частота кадров                           : 23,976 (24000/1001) кадра/сек
Цветовое пространство                    : YUV
Субдискретизация насыщенности            : 4:2:0
Битовая глубина                          : 8 бит
Тип развёртки                            : Прогрессивная
Бит/(Пиксели*Кадры)                      : 0.119
Размер потока                            : 688 Мбайт (76%)
Язык                                     : English
Default                                  : Да
Forced                                   : Нет
Цветовой диапазон                        : Limited
Основные цвета                           : BT.709
Характеристики трансфера                 : BT.709
Коэффициенты матрицы                     : BT.709

Аудио #1
Идентификатор                            : 2
Формат                                   : AC-3
Формат/Информация                        : Audio Coding 3
Идентификатор кодека                     : A_AC3
Продолжительность                        : 36 м. 32 с.
Вид битрейта                             : Постоянный
Битрейт                                  : 384 Кбит/сек
Каналы                                   : 6 каналов
Расположение каналов                     : Front: L C R, Side: L R, LFE
Частота                                  : 48,0 КГц
Частота кадров                           : 31,250 кадров/сек (1536 SPF)
Битовая глубина                          : 16 бит
Метод сжатия                             : С потерями
Размер потока                            : 100 Мбайт (11%)
Заголовок                                : Jaskier
Язык                                     : Russian
ServiceKind/String                       : Complete Main
Default                                  : Да
Forced                                   : Нет

Аудио #2
Идентификатор                            : 3
Формат                                   : AC-3
Формат/Информация                        : Audio Coding 3
Идентификатор кодека                     : A_AC3
Продолжительность                        : 36 м. 32 с.
Вид битрейта                             : Постоянный
Битрейт                                  : 384 Кбит/сек
Каналы                                   : 6 каналов
Расположение каналов                     : Front: L C R, Side: L R, LFE
Частота                                  : 48,0 КГц
Частота кадров                           : 31,250 кадров/сек (1536 SPF)
Битовая глубина                          : 16 бит
Метод сжатия                             : С потерями
Размер потока                            : 100 Мбайт (11%)
Язык                                     : English
ServiceKind/String                       : Complete Main
Default                                  : Нет
Forced                                   : Нет

Текст
Идентификатор                            : 4
Формат                                   : UTF-8
Идентификатор кодека                     : S_TEXT/UTF8
Идентификатор кодека/Информация          : UTF-8 Plain Text
Язык                                     : English
Default                                  : Нет
Forced                                   : Нет
скриншот  скриншот  скриншот  
Когда раздача ведётся путём добавления новых серий, при каждом добавлении создётся новый торрент. Чтобы начать докачку новой серии, пользователям необходимо сделать следующее:
(1) остановить скачивание,
(2) удалить старый торрент у себя из клиента (старые серии удалять не надо),
(3) скачать новый торрент и запустить его у себя в клиенте вместо старого, при этом указать клиенту путь в старую папку, куда и должно происходить скачивание новых серий.
Ваш клиент при этом должен произвести хеширование (проверку) старой папки (если не производит сам - помогите ему сделать это), и будет докачивать только те серии, которых у вас ещё нет. Старые серии при этом не удаляются, а продолжают раздаваться!
Eсли вы уже удалили старые серии, то предотвратить повторную закачку старых серий можно, отжав галочку в соответсвующих местах при запуске нового торрента. По возможности, желательно не удалять старые серии как можно дольше, чтобы релизёр не столько продолжал раздавать старые серии, а смог сконцентрироваться на новых.
pb.wtf



Скачать Белая ворона через торрент http://img11.lostpic.net/2018/08/15/d6be6b2590a2c4398497357c620ab571.png Скачать фильм Белая ворона через торрент бесплантно в хорошем качестве Описание: Героинями данной комедии являются две обычные чернокожие американки. Обеим из них уже стукнуло тридцать лет, они продолжают ... 5.8 10 4
Торрент: Зарегистрирован [2018-10-03 12:34] · скачан: 2 раз
Статус: √ проверено
Размер: 7.15 GB
Как cкачать? Как скачать Белая ворона через торрент | qTorrent

% Раздел Тема Автор DL S | L
Зарубежные сериалы [ 3.13 GB ] Белая ворона / Insecure / Сезон: 3 / Серии: 1-8 из 8 [2018 WEB-DLRip] MVO [Jaskier] bober100 Скачать
1 | 0

28-11-2019 20:33  

Отключить всю рекламу на сайте

    Дорогой пользователь! Огромная просьба, поблагодарите релизера, оцените раздачу и оставьте свои комментарий, если Вы скачали Белая ворона через торрент бесплатно! Внесите свою лепту в развитие PiratBit!
    Комментировать посты могут только пользователи прошедшие не сложную регистрацию
    Показать сообщения:    

    Белая ворона через торрент
    Скачать бесплатно Белая ворона
    Белая ворона скачать торрент
    Белая ворона смотреть онлайн
    Cкачать фильм Белая ворона бесплатно
    Белая ворона скачать торрент в хорошем качестве
    Белая ворона смотреть онлайн бесплатно в хорошем качестве


    Вы не можете начинать темы
    Вы не можете отвечать на сообщения
    Вы не можете редактировать свои сообщения
    Вы не можете удалять свои сообщения
    Вы не можете голосовать в опросах
    Вы не можете прикреплять файлы к сообщениям
    Вы можете скачивать файлы