Ссылка на приватное зеркало нашего сайта всего за 1$. Внимание количество ограничено!!!

2 сезон

iTunes

1 сезон

1

iTunes

iTunes

iTunes

1 сезон

RePack

30

ИГРА 18+

pack

ВАЖНО

!!Акция!!

Alien_RageХит недели

RePack

MK11
pack

Забери бонус

RePack

jed

!!Акция!!

Alien_Rage

RePack

fifa19

RePack

Assassins Creed: Odyssey

RePack

NEED FOR SPEED™ PAYBACK

4 сезон

9 сезон

Бесстыжие 9 сезон

Все сериалы

все сериалы на PB.wtf

RePack

FAR CRY 5
  

Свидетели / Сезон: 2 / Серии: 1-80 из 80 (Михаил Богдасаров, Игорь Твердохлебов, Илья Шеховцов) [2017, Детектив, HDTVRip-AVC] pb.wtf

Свидетели через торрент pb.wtf

Размер: 56.44 GB | Добавлен: 2 года 2 мес. назад | Торрент скачан:5 раз
Скачать  

15-08-2018 13:20 Свидетели Скачать торрент  

СвидетелиГод выпуска: 2017
Страна: Россия
Жанр: Детектив
Продолжительность: ~ 00:45:00
Субтитры: отсутствуют

Режиссер: Михаил Богдасаров, Игорь Твердохлебов, Илья Шеховцов

rating

В ролях:

Николай Сердцев, Станислав Повольнов, Дмитрий Соловьёв, Павел Демьянов, Максим Дримлинг, Ирина Минеева, Татьяна Храмова, Лариса Резникова, Егор Вадов, Александр Дуда, Екатерина Буйлова, Ирина Шеянова, Артём Федотов, Антон Савватимов, Сергей Букреев, Вилен Бабичев, Владимир Чуприков, Николай Зазуля

Описание:

Следственно-аналитическое управление САУ возглавляет полковник Андрей Громов. Сотрудники управления занимаются розыском преступников и криминалистической экспертизой. Они изучают улики, строят доказательную базу, опрашивают свидетелей и проводят очные ставки в высокотехнологичном офисе, оборудованном по последнему слову техники. В их распоряжении допросные комнаты, камеры заключения, научная лаборатория, а также сканеры, тепловизоры, датчики движения, аппараты для изучения психофизического состояния и новейшие детекторы лжи. Агенты могут обнаружить на месте преступления не только отпечатки пальцев, но и следы электронных устройств, которые находились в момент убийства на этой территории. В этом сотрудникам САУ помогает передвижная лаборатория «Сканер», имеющая доступ к сотовым вышкам.

Качество: HDTVRip-AVC
Формат: MKV

Видео: MPEG-4 AVC, ~ 2000 Кбит/с, 1024x576, 25 кадр/с
Аудио: AC3, 2 ch, 192 Кбит/с
скриншот  скриншот  скриншот  скриншот  

Общее
Уникальный идентификатор : 179496546133390746567860231493388642443 (0x8709C6FDDE8AF2ED849C0D5316C4A88B)
Полное имя : D:\Svideteli.2 sez.(2017).HDTVRip.(AVC).Files-x\01.Svideteli.s02.(2017).HDTVRip.AVC.by.Серый1779.Files-x.mkv
Формат : Matroska
Версия формата : Version 2
Размер файла : 737 Мбайт
Продолжительность : 46 м. 59 с.
Общий поток : 2193 Кбит/сек
Дата кодирования : UTC 2017-11-13 11:40:48
Программа кодирования : mkvmerge v7.8.0 ('River Man') 32bit built on Apr 3 2015 12:11:22
Библиотека кодирования : libebml v1.3.1 + libmatroska v1.4.2

Видео
Идентификатор : 1
Формат : AVC
Формат/Информация : Advanced Video Codec
Профиль формата : High@L4.1
Параметр CABAC формата : Да
Параметр RefFrames формата : 9 кадров
Идентификатор кодека : V_MPEG4/ISO/AVC
Продолжительность : 46 м. 59 с.
Битрейт : 2000 Кбит/сек
Ширина : 1024 пикселя
Высота : 576 пикселей
Соотношение сторон : 16:9
Режим частоты кадров : Постоянный
Частота кадров : 25,000 кадров/сек
Цветовое пространство : YUV
Субдискретизация насыщенности : 4:2:0
Битовая глубина : 8 бит
Тип развёртки : Прогрессивная
Бит/(Пиксели*Кадры) : 0.136
Размер потока : 658 Мбайт (89%)
Библиотека кодирования : x264 core 146 r2538 121396c
Настройки программы : cabac=1 / ref=9 / deblock=1:-2:-1 / analyse=0x3:0x133 / me=umh / subme=9 / psy=1 / psy_rd=1.00:0.15 / mixed_ref=1 / me_range=32 / chroma_me=1 / trellis=2 / 8x8dct=1 / cqm=0 / deadzone=21,11 / fast_pskip=0 / chroma_qp_offset=-3 / threads=18 / lookahead_threads=3 / sliced_threads=0 / nr=0 / decimate=1 / interlaced=0 / bluray_compat=0 / constrained_intra=0 / bframes=9 / b_pyramid=2 / b_adapt=2 / b_bias=0 / direct=1 / weightb=1 / open_gop=0 / weightp=2 / keyint=250 / keyint_min=25 / scenecut=40 / intra_refresh=0 / rc=2pass / mbtree=0 / bitrate=2000 / ratetol=1.0 / qcomp=0.60 / qpmin=0 / qpmax=69 / qpstep=4 / cplxblur=20.0 / qblur=0.5 / ip_ratio=1.40 / pb_ratio=1.30 / aq=2:1.00
Default : Да
Forced : Нет
Цветовой диапазон : Limited
Основные цвета : BT.709
Характеристики трансфера : BT.709
Коэффициенты матрицы : BT.709

Аудио
Идентификатор : 2
Формат : AC-3
Формат/Информация : Audio Coding 3
Расширение режима : CM (complete main)
Параметр Endianness формата : Big
Идентификатор кодека : A_AC3
Продолжительность : 46 м. 59 с.
Вид битрейта : Постоянный
Битрейт : 192 Кбит/сек
Каналы : 2 канала
Расположение каналов : Front: L R
Частота : 48,0 КГц
Частота кадров : 31,250 кадров/сек (1536 spf)
Метод сжатия : С потерями
Размер потока : 64,5 Мбайт (9%)
Default : Да
Forced : Нет

pb.wtf



Скачать Свидетели через торрент http://i97.fastpic.ru/big/2017/1116/d8/0e4a19b918181b0f4abc9d3325c495d8.jpg Скачать фильм Свидетели через торрент бесплантно в хорошем качестве Описание: Следственно-аналитическое управление САУ возглавляет полковник Андрей Громов. Сотрудники управления занимаются розыском ... 9.3 10 3
Info! Золотая раздача, скачанное не засчитывается.
Торрент: Зарегистрирован [2018-08-15 13:20] · скачан: 5 раз
Статус: √ проверено
Размер: 56.44 GB
Как cкачать? Как скачать Свидетели через торрент | qTorrent

% Раздел Тема Автор DL S | L
Зарубежные сериалы [ 8.9 GB ] Свидетель обвинения / The Witness for the Prosecution / Сезон: 1 / Серии: 1-2 из 2 [2016 BDRip 1080p] MVO [SDI Media] bober100 Скачать
1 | 0
Наши сериалы [ 45.82 GB ] Свидетели / Сезон: 2 / Серии: 1-80 из 80 [2017 HDTVRip] bober100 Скачать
1 | 0

28-11-2019 20:33  

Отключить всю рекламу на сайте

    Дорогой пользователь! Огромная просьба, поблагодарите релизера, оцените раздачу и оставьте свои комментарий, если Вы скачали Свидетели через торрент бесплатно! Внесите свою лепту в развитие PiratBit!
    Комментировать посты могут только пользователи прошедшие не сложную регистрацию
    Показать сообщения:    

    Свидетели через торрент
    Скачать бесплатно Свидетели
    Свидетели скачать торрент
    Свидетели смотреть онлайн
    Cкачать фильм Свидетели бесплатно
    Свидетели скачать торрент в хорошем качестве
    Свидетели смотреть онлайн бесплатно в хорошем качестве


    Вы не можете начинать темы
    Вы не можете отвечать на сообщения
    Вы не можете редактировать свои сообщения
    Вы не можете удалять свои сообщения
    Вы не можете голосовать в опросах
    Вы не можете прикреплять файлы к сообщениям
    Вы можете скачивать файлы