Ссылка на приватное зеркало нашего сайта всего за 1$. Внимание количество ограничено!!!

2 сезон

iTunes

1 сезон

1

2 сезон

2 сезон

iTunes

1 сезон

RePack

30

Ultimate

ВАЖНО

ИГРА 18+

pack

RePack

MK11
pack

Забери бонус

RePack

jed

!!Акция!!

Alien_Rage

RePack

fifa19

RePack

Assassins Creed: Odyssey

RePack

NEED FOR SPEED™ PAYBACK

4 сезон

9 сезон

Бесстыжие 9 сезон

Все сериалы

все сериалы на PB.wtf

RePack

FAR CRY 5
  

Футболисты / Игроки / Ballers / Сезон: 4 / Серии: 1-9 из 9 (Питер Берг) [2018, Драма, комедия, WEB-DL 720p] MVO [Jaskier] pb.wtf

Футболисты через торрент pb.wtf

Размер: 6.55 GB | Добавлен: 2 года 1 мес. назад | Торрент скачан:41 раз
Скачать  

15-08-2018 18:07 Футболисты Скачать торрент  

Игроки / Футболисты / Ballers Год выпуска: 2018
Страна: США
Жанр: Драма, комедия
Продолжительность: ~ 00:30:00
Перевод: Профессиональный (многоголосый закадровый) | Jaskier
Субтитры: отсутствуют

Режиссёр: Питер Берг

В ролях:

Дуэйн Джонсон, Джасмин Саймон, Донован Картер, Роб Кордри, Трой Гэрити, Омар Бенсон Миллер, Джон Дэвид Вашингтон, Анабель Акоста, Дуле Хилл, Ариэль Кеббел

Описание:

Новый совместный проект Дуэйна «Скалы» Джонсона, Марка Уолберга и режиссера «Хэнкока» Питера Берга - комедийная драма НВО о жизни профессиональных игроков в американский футбол. Они зарабатывают миллионы, на них молятся фанаты, их показывают в новостях. Но помимо многочасовых тренировок, пятничных игр и вспышек фотокамер у них есть друзья, семьи и, конечно, проблемы – почти такие же, как у обычных людей. С девушкой помириться - это, знаете ли, не тачдаун оформить.



Качество: WEB-DL 720p
Формат: MKV

Видео: X264, ~ 2500 kbps, 1280x720 (16:9), 23.976 fps
Аудио 1: AC3, 48,0 КГц, 6 ch, 384 kbps - Rus
Аудио 2: AC3, 48,0 КГц, 6 ch, 384 kbps - Eng


Реклама: аудио, два раза в начале и в конце по 13 секунд
Общее
Формат                                   : Matroska
Версия формата                           : Version 2
Размер файла                             : 779 Мбайт
Продолжительность                        : 32 м.
Общий поток                              : 3326 Кбит/сек
Дата кодирования                         : UTC 2018-08-15 15:19:30
Программа кодирования                    : mkvmerge v7.8.0 ('River Man') 32bit built on Apr  3 2015 12:11:22
Библиотека кодирования                   : libebml v1.3.1 + libmatroska v1.4.2

Видео
Идентификатор                            : 1
Формат                                   : AVC
Формат/Информация                        : Advanced Video Codec
Профиль формата                          : High@L3.1
Параметр CABAC формата                   : Да
Параметр ReFrames формата                : 5 кадров
Идентификатор кодека                     : V_MPEG4/ISO/AVC
Продолжительность                        : 32 м.
Битрейт                                  : 2492 Кбит/сек
Ширина                                   : 1280 пикселей
Высота                                   : 720 пикселей
Соотношение сторон                       : 16:9
Режим частоты кадров                     : Постоянный
Частота кадров                           : 23,976 (24000/1001) кадра/сек
Цветовое пространство                    : YUV
Субдискретизация насыщенности            : 4:2:0
Битовая глубина                          : 8 бит
Тип развёртки                            : Прогрессивная
Бит/(Пиксели*Кадры)                      : 0.113
Размер потока                            : 584 Мбайт (75%)
Default                                  : Да
Forced                                   : Нет
Цветовой диапазон                        : Limited
Основные цвета                           : BT.709
Характеристики трансфера                 : BT.709
Коэффициенты матрицы                     : BT.709

Аудио #1
Идентификатор                            : 2
Формат                                   : AC-3
Формат/Информация                        : Audio Coding 3
Расширение режима                        : CM (complete main)
Параметр Endianness формата              : Big
Идентификатор кодека                     : A_AC3
Продолжительность                        : 32 м.
Вид битрейта                             : Постоянный
Битрейт                                  : 384 Кбит/сек
Каналы                                   : 6 каналов
Расположение каналов                     : Front: L C R, Side: L R, LFE
Частота                                  : 48,0 КГц
Частота кадров                           : 31,250 кадров/сек (1536 spf)
Метод сжатия                             : С потерями
Размер потока                            : 90,0 Мбайт (12%)
Заголовок                                : Jaskier
Язык                                     : Russian
Default                                  : Да
Forced                                   : Нет

Аудио #2
Идентификатор                            : 3
Формат                                   : AC-3
Формат/Информация                        : Audio Coding 3
Расширение режима                        : CM (complete main)
Параметр Endianness формата              : Big
Идентификатор кодека                     : A_AC3
Продолжительность                        : 32 м.
Вид битрейта                             : Постоянный
Битрейт                                  : 384 Кбит/сек
Каналы                                   : 6 каналов
Расположение каналов                     : Front: L C R, Side: L R, LFE
Частота                                  : 48,0 КГц
Частота кадров                           : 31,250 кадров/сек (1536 spf)
Метод сжатия                             : С потерями
Размер потока                            : 90,0 Мбайт (12%)
Язык                                     : English
Default                                  : Нет
Forced                                   : Нет
скриншот  скриншот  скриншот  
Когда раздача ведётся путём добавления новых серий, при каждом добавлении создётся новый торрент. Чтобы начать докачку новой серии, пользователям необходимо сделать следующее:
(1) остановить скачивание,
(2) удалить старый торрент у себя из клиента (старые серии удалять не надо),
(3) скачать новый торрент и запустить его у себя в клиенте вместо старого, при этом указать клиенту путь в старую папку, куда и должно происходить скачивание новых серий.
Ваш клиент при этом должен произвести хеширование (проверку) старой папки (если не производит сам - помогите ему сделать это), и будет докачивать только те серии, которых у вас ещё нет. Старые серии при этом не удаляются, а продолжают раздаваться!
Eсли вы уже удалили старые серии, то предотвратить повторную закачку старых серий можно, отжав галочку в соответсвующих местах при запуске нового торрента. По возможности, желательно не удалять старые серии как можно дольше, чтобы релизёр не столько продолжал раздавать старые серии, а смог сконцентрироваться на новых.
pb.wtf



Скачать Футболисты через торрент http://i69.fastpic.ru/big/2015/0704/7f/460ba548b07e966306eef082448a0c7f.png Скачать фильм Футболисты через торрент бесплантно в хорошем качестве Описание: Новый совместный проект Дуэйна «Скалы» Джонсона, Марка Уолберга и режиссера «Хэнкока» Питера Берга - комедийная драма НВО о жизни ... 10 10 5
Торрент: Зарегистрирован [2018-10-10 16:53] · скачан: 41 раз
Статус: √ проверено
Размер: 6.55 GB
Как cкачать? Как скачать Футболисты через торрент | qTorrent

% Раздел Тема Автор DL S | L
Зарубежные сериалы [ 3.25 GB ] Футболисты / Игроки / Ballers / Сезон: 4 / Серии: 1-9 из 9 [2018 WEB-DLRip] MVO [Jaskier] bober100 Скачать
1 | 0
Зарубежные сериалы [ 3.42 GB ] Игроки / Футболисты / Ballers / Сезон: 4 / Серии: 1-9 из 9 [2018 WEB-DLRip] MVO [Amedia] bober100 Скачать
1 | 0
Зарубежные сериалы [ 17.45 GB ] Игроки / Футболисты / Ballers / Сезон: 4 / Серии: 1-9 из 9 [2018 WEB-DL 1080p] MVO [Amedia] bober100 Скачать
1 | 0

28-11-2019 20:33  

Отключить всю рекламу на сайте

    Дорогой пользователь! Огромная просьба, поблагодарите релизера, оцените раздачу и оставьте свои комментарий, если Вы скачали Футболисты через торрент бесплатно! Внесите свою лепту в развитие PiratBit!
    Комментировать посты могут только пользователи прошедшие не сложную регистрацию
    Показать сообщения:    

    Футболисты через торрент
    Скачать бесплатно Футболисты
    Футболисты скачать торрент
    Футболисты смотреть онлайн
    Cкачать фильм Футболисты бесплатно
    Футболисты скачать торрент в хорошем качестве
    Футболисты смотреть онлайн бесплатно в хорошем качестве


    Вы не можете начинать темы
    Вы не можете отвечать на сообщения
    Вы не можете редактировать свои сообщения
    Вы не можете удалять свои сообщения
    Вы не можете голосовать в опросах
    Вы не можете прикреплять файлы к сообщениям
    Вы можете скачивать файлы