Ссылка на приватное зеркало нашего сайта всего за 1$. Внимание количество ограничено!!!

2 сезон

iTunes

1 сезон

1

iTunes

iTunes

iTunes

1 сезон

RePack

30

ИГРА 18+

pack

ВАЖНО

!!Акция!!

Alien_RageХит недели

RePack

MK11
pack

Забери бонус

RePack

jed

!!Акция!!

Alien_Rage

RePack

fifa19

RePack

Assassins Creed: Odyssey

RePack

NEED FOR SPEED™ PAYBACK

4 сезон

9 сезон

Бесстыжие 9 сезон

Все сериалы

все сериалы на PB.wtf

RePack

FAR CRY 5
  

Ожидается ураганный ветер / Серии: 1-4 из 4 (Станислав Дремов) [2017, драма, HDTVRip 720p] pb.wtf

Ожидается ураганный ветер через торрент pb.wtf

Размер: 4.72 GB | Добавлен: 2 года 2 мес. назад | Торрент скачан:35 раз
Скачать  

15-08-2018 20:55 Ожидается ураганный ветер Скачать торрент  

Ожидается ураганный ветер Год выпуска: 2017
Производство: Атлантик Продакшн
Жанр: драма
Продолжительность: ~00:45:00 серия
Субтитры: нет

Режиссёр: Станислав Дремов

В ролях:

Наталья Терехова, Владислав Резник, Юрий Батурин, Галина Сумина, Мария Жиганова, Игорь Ботвин, Артемий Шаффер, Вячеслав Григорьев, Анастасия Чурсина, Андрей Шипицын

Описание:

Счастливая жизнь Марии Турбиной заканчивается, когда в годовщину свадьбы ее вместе с мужем и сестрой застигает ураган. Они не успевают доехать до своего загородного дома, где должно было происходить празднование. Вместо этого им приходится остановиться на ночь в придорожном мотеле. Здесь-то Мария и узнает, что ее муж изменяет ей с сестрой. Она в отчаянии сбегает из мотеля. Но ее неприятности только начинаются. Она оказывается в заложниках у сбежавшего из тюрьмы убийцы Михаила Шведова. За Шведовым ведется охота, а Марию считают соучастницей. Теперь ей придется разобраться в себе, своей жизни, и распутать как собственный любовный треугольник, так и загадочное убийство..



Качество: HDTVRip 720p
Формат: MKV
Видео кодек: H.264
Аудио кодек: AC3

Видео: MPEG4 AVC Video, H264, 16:9, 1280x720, 25 fps, ~3500 kbps, 0.152 bit/pixel
Аудио: AC3 Dolby Digital, 48 kHz, 2/0 (L,R) ch, 192 kbps
General
Unique ID : 192787815311657402174182639715021773217 (0x910995280990BCE7AD633D058DF859A1)
Complete name : D:\Ozhidaetsja.uragannyj.veter.2017.HDTVRip.(720p).Nikolspup\Ozhidaetsja.uragannyj.veter.(01.seriya.iz.02).2017.HDTVRip.(720p).Nikolspup.mkv
Format : Matroska
Format version : Version 4 / Version 2
File size : 2.34 GiB
Duration : 1h 30mn
Overall bit rate : 3 694 Kbps
Encoded date : UTC 2018-01-28 06:00:46
Writing application : mkvmerge v7.8.0 ('River Man') 32bit built on Apr 3 2015 12:11:22
Writing library : libebml v1.3.1 + libmatroska v1.4.2
DURATION : 01:30:37.312000000
NUMBER_OF_FRAMES : 169916
NUMBER_OF_BYTES : 130495488
_STATISTICS_WRITING_APP : mkvmerge v7.8.0 ('River Man') 32bit built on Apr 3 2015 12:11:22
_STATISTICS_WRITING_DATE_UTC : 2018-01-28 06:00:46
_STATISTICS_TAGS : BPS DURATION NUMBER_OF_FRAMES NUMBER_OF_BYTES

Video
ID : 1
Format : AVC
Format/Info : Advanced Video Codec
Format profile : High@L4.1
Format settings, CABAC : Yes
Format settings, ReFrames : 9 frames
Codec ID : V_MPEG4/ISO/AVC
Duration : 1h 30mn
Bit rate : 3 500 Kbps
Width : 1 280 pixels
Height : 720 pixels
Display aspect ratio : 16:9
Frame rate mode : Constant
Frame rate : 25.000 fps
Color space : YUV
Chroma subsampling : 4:2:0
Bit depth : 8 bits
Scan type : Progressive
Bits/(Pixel*Frame) : 0.152
Stream size : 2.17 GiB (93%)
Writing library : x264 core 146 r2538 121396c
Encoding settings : cabac=1 / ref=9 / deblock=1:-3:-3 / analyse=0x3:0x113 / me=umh / subme=11 / psy=1 / psy_rd=1.00:0.20 / mixed_ref=1 / me_range=32 / chroma_me=1 / trellis=2 / 8x8dct=1 / cqm=0 / deadzone=21,11 / fast_pskip=1 / chroma_qp_offset=-3 / threads=6 / lookahead_threads=1 / sliced_threads=0 / nr=0 / decimate=0 / interlaced=0 / bluray_compat=0 / constrained_intra=0 / bframes=11 / b_pyramid=2 / b_adapt=2 / b_bias=0 / direct=3 / weightb=1 / open_gop=0 / weightp=2 / keyint=250 / keyint_min=25 / scenecut=40 / intra_refresh=0 / rc_lookahead=60 / rc=2pass / mbtree=1 / bitrate=3500 / ratetol=1.0 / qcomp=0.60 / qpmin=0 / qpmax=69 / qpstep=4 / cplxblur=20.0 / qblur=0.5 / vbv_maxrate=14000 / vbv_bufsize=14000 / nal_hrd=none / filler=0 / ip_ratio=1.40 / aq=3:1.00
Default : No
Forced : No
DURATION : 01:30:37.280000000
NUMBER_OF_FRAMES : 135932
NUMBER_OF_BYTES : 2379061081
_STATISTICS_WRITING_APP : mkvmerge v7.8.0 ('River Man') 32bit built on Apr 3 2015 12:11:22
_STATISTICS_WRITING_DATE_UTC : 2018-01-28 06:00:46
_STATISTICS_TAGS : BPS DURATION NUMBER_OF_FRAMES NUMBER_OF_BYTES
Color primaries : BT.709
Transfer characteristics : BT.709
Matrix coefficients : BT.709

Audio
ID : 2
Format : AC-3
Format/Info : Audio Coding 3
Mode extension : CM (complete main)
Format settings, Endianness : Big
Codec ID : A_AC3
Duration : 1h 30mn
Bit rate mode : Constant
Bit rate : 192 Kbps
Channel count : 2 channels
Channel positions : Front: L R
Sampling rate : 48.0 KHz
Bit depth : 16 bits
Compression mode : Lossy
Stream size : 124 MiB (5%)
Language : Russian
Default : Yes
Forced : Yes
скриншот   скриншот   скриншот   скриншот  

скриншот   скриншот   скриншот   скриншот  
pb.wtf



Скачать Ожидается ураганный ветер через торрент http://i101.fastpic.ru/big/2018/0127/51/8e0a50b63811415faa118c739ca46351.jpg Скачать фильм Ожидается ураганный ветер через торрент бесплантно в хорошем качестве Описание: Счастливая жизнь Марии Турбиной заканчивается, когда в годовщину свадьбы ее вместе с мужем и сестрой застигает ураган. Они не ... 9.7 10 3
Торрент: Зарегистрирован [2018-08-15 20:55] · скачан: 35 раз
Статус: √ проверено
Размер: 4.72 GB
Как cкачать? Как скачать Ожидается ураганный ветер через торрент | qTorrent

% Раздел Тема Автор DL S | L
Наши сериалы [ 2.46 GB ] Ожидается ураганный ветер /Серия 1-4 из 4 / [2018 SATRip] oleg8 Скачать
1 | 0
Наши сериалы [ 2.21 GB ] Ожидается ураганный ветер / Серии: 1-4 из 4 [2018 SATRip-AVC] aleksan55 Скачать
1 | 0

28-11-2019 20:33  

Отключить всю рекламу на сайте

    Дорогой пользователь! Огромная просьба, поблагодарите релизера, оцените раздачу и оставьте свои комментарий, если Вы скачали Ожидается ураганный ветер через торрент бесплатно! Внесите свою лепту в развитие PiratBit!
    Комментировать посты могут только пользователи прошедшие не сложную регистрацию
    Показать сообщения:    

    Ожидается ураганный ветер через торрент
    Скачать бесплатно Ожидается ураганный ветер
    Ожидается ураганный ветер скачать торрент
    Ожидается ураганный ветер смотреть онлайн
    Cкачать фильм Ожидается ураганный ветер бесплатно
    Ожидается ураганный ветер скачать торрент в хорошем качестве
    Ожидается ураганный ветер смотреть онлайн бесплатно в хорошем качестве


    Вы не можете начинать темы
    Вы не можете отвечать на сообщения
    Вы не можете редактировать свои сообщения
    Вы не можете удалять свои сообщения
    Вы не можете голосовать в опросах
    Вы не можете прикреплять файлы к сообщениям
    Вы можете скачивать файлы