Ссылка на приватное зеркало нашего сайта всего за 1$. Внимание количество ограничено!!!

2 сезон

iTunes

1 сезон

1

2 сезон

2 сезон

iTunes

1 сезон

RePack

30

Новинка

ВАЖНО

ИГРА 18+

pack

RePack

MK11
pack

Забери бонус

RePack

jed

!!Акция!!

Alien_Rage

RePack

fifa19

RePack

Assassins Creed: Odyssey

RePack

NEED FOR SPEED™ PAYBACK

4 сезон

9 сезон

Бесстыжие 9 сезон

Все сериалы

все сериалы на PB.wtf

RePack

FAR CRY 5
  

Бойтесь ходячих мертвецов / Fear the Walking Dead / Сезон: 4 / Серии: 1-16 из 16 (Адам Дэвидсон, Кари Скогланд, Стефан Шварц) [2018, ужасы, драма, HDTVRip 720p] MVO [Jaskier] pb.wtf

Бойтесь ходячих мертвецов через торрент pb.wtf

Размер: 18.68 GB | Добавлен: 2 года 1 мес. назад | Торрент скачан:20 раз
Скачать  

15-08-2018 21:09 Бойтесь ходячих мертвецов Скачать торрент  

Бойтесь ходячих мертвецов / Fear the Walking Dead

Год выпуска: 2018
Страна: США
Жанр: ужасы, драма
Продолжительность: ~ 00:44:00
Перевод: Профессиональный (многоголосый закадровый) | Jaskier
Субтитры: нет

Режиссёр: Адам Дэвидсон, Кари Скогланд, Стефан Шварц

В ролях:

Клифф Кёртис, Ким Диккенс, Алисия Дебнем-Кери, Фрэнк Диллэйн, Рубен Блэйдс, Мерседес Масон, Колман Доминго, Лоренцо Джеймс Хенри, Элизабет Родригес, Тони Френч

Описание:

Действия сериала происходят параллельно с событиями зомби-апокалипсиса, показанными в сериале «Ходячие мертвецы», но в совершенно другом месте — Лос-Анджелесе. В центре сюжета находится семья матери-одиночки и консультанта по профессиям Мэдисон Кларк и разведённого учителя Трэвиса Манавы, которые вместе пытаются выжить в зомби-апокалипсисе.



Качество: HDTVRip 720p
Формат: MKV

Видео: X264, ~ 3500 kbps, 1280x720 (16:9), 23.976 fps
Аудио 1: AC3, 48,0 КГц, 6 ch, 384 kbps - RUS
Аудио 2: AC3, 48,0 КГц, 6 ch, 384 kbps - ENG


Реклама: аудио, два раза в начале и в конце по 13 секунд
Общее
Уникальный идентификатор                 : 218917410316286726164115237110935549288 (0xA4B1F5A7882C8DDB982E160C0A117568)
Формат                                   : Matroska
Версия формата                           : Version 2
Размер файла                             : 1,47 Гбайт
Продолжительность                        : 48 м.
Общий поток                              : 4343 Кбит/сек
Дата кодирования                         : UTC 2018-04-18 14:37:30
Программа кодирования                    : mkvmerge v5.8.0 ('No Sleep / Pillow') built on Sep  2 2012 15:37:04
Библиотека кодирования                   : libebml v1.2.3 + libmatroska v1.3.0

Видео
Идентификатор                            : 1
Формат                                   : AVC
Формат/Информация                        : Advanced Video Codec
Профиль формата                          : High@L4.1
Параметр CABAC формата                   : Да
Параметр ReFrames формата                : 5 кадров
Идентификатор кодека                     : V_MPEG4/ISO/AVC
Продолжительность                        : 48 м.
Битрейт                                  : 3489 Кбит/сек
Ширина                                   : 1280 пикселей
Высота                                   : 720 пикселей
Соотношение сторон                       : 16:9
Режим частоты кадров                     : Постоянный
Частота кадров                           : 23,976 (24000/1001) кадра/сек
Цветовое пространство                    : YUV
Субдискретизация насыщенности            : 4:2:0
Битовая глубина                          : 8 бит
Тип развёртки                            : Прогрессивная
Бит/(Пиксели*Кадры)                      : 0.158
Размер потока                            : 1,18 Гбайт (80%)
Библиотека кодирования                   : x264 core 155 r2901 7d0ff22
Настройки программы                      : cabac=1 / ref=5 / deblock=1:0:0 / analyse=0x3:0x113 / me=hex / subme=8 / psy=1 / psy_rd=1.00:0.00 / mixed_ref=1 / me_range=16 / chroma_me=1 / trellis=2 / 8x8dct=1 / cqm=0 / deadzone=21,11 / fast_pskip=1 / chroma_qp_offset=-2 / threads=22 / lookahead_threads=3 / sliced_threads=0 / nr=0 / decimate=1 / interlaced=0 / bluray_compat=0 / constrained_intra=0 / bframes=3 / b_pyramid=2 / b_adapt=1 / b_bias=0 / direct=3 / weightb=1 / open_gop=0 / weightp=2 / keyint=250 / keyint_min=23 / scenecut=40 / intra_refresh=0 / rc_lookahead=50 / rc=crf / mbtree=1 / crf=18.0 / qcomp=0.60 / qpmin=0 / qpmax=69 / qpstep=4 / ip_ratio=1.40 / aq=1:1.00
Язык                                     : English
Default                                  : Да
Forced                                   : Нет
Цветовой диапазон                        : Limited
Коэффициенты матрицы                     : BT.709

Аудио #1
Идентификатор                            : 2
Формат                                   : AC-3
Формат/Информация                        : Audio Coding 3
Расширение режима                        : CM (complete main)
Параметр Endianness формата              : Big
Идентификатор кодека                     : A_AC3
Продолжительность                        : 48 м.
Вид битрейта                             : Постоянный
Битрейт                                  : 384 Кбит/сек
Каналы                                   : 6 каналов
Расположение каналов                     : Front: L C R, Side: L R, LFE
Частота                                  : 48,0 КГц
Частота кадров                           : 31,250 кадров/сек (1536 spf)
Метод сжатия                             : С потерями
Размер потока                            : 133 Мбайт (9%)
Язык                                     : Russian
Default                                  : Да
Forced                                   : Нет

Аудио #2
Идентификатор                            : 3
Формат                                   : AC-3
Формат/Информация                        : Audio Coding 3
Расширение режима                        : CM (complete main)
Параметр Endianness формата              : Big
Идентификатор кодека                     : A_AC3
Продолжительность                        : 48 м.
Вид битрейта                             : Постоянный
Битрейт                                  : 384 Кбит/сек
Каналы                                   : 6 каналов
Расположение каналов                     : Front: L C R, Side: L R, LFE
Частота                                  : 48,0 КГц
Частота кадров                           : 31,250 кадров/сек (1536 spf)
Метод сжатия                             : С потерями
Размер потока                            : 133 Мбайт (9%)
Язык                                     : English
Default                                  : Нет
Forced                                   : Нет
скриншот  скриншот  скриншот  
Когда раздача ведётся путём добавления новых серий, при каждом добавлении создётся новый торрент. Чтобы начать докачку новой серии, пользователям необходимо сделать следующее:
(1) остановить скачивание,
(2) удалить старый торрент у себя из клиента (старые серии удалять не надо),
(3) скачать новый торрент и запустить его у себя в клиенте вместо старого, при этом указать клиенту путь в старую папку, куда и должно происходить скачивание новых серий.
Ваш клиент при этом должен произвести хеширование (проверку) старой папки (если не производит сам - помогите ему сделать это), и будет докачивать только те серии, которых у вас ещё нет. Старые серии при этом не удаляются, а продолжают раздаваться!
Eсли вы уже удалили старые серии, то предотвратить повторную закачку старых серий можно, отжав галочку в соответсвующих местах при запуске нового торрента. По возможности, желательно не удалять старые серии как можно дольше, чтобы релизёр не столько продолжал раздавать старые серии, а смог сконцентрироваться на новых.
pb.wtf



Скачать Бойтесь ходячих мертвецов через торрент http://i104.fastpic.ru/big/2018/0418/6d/237580ad80fa4a0e5307a024d70c746d.png Скачать фильм Бойтесь ходячих мертвецов через торрент бесплантно в хорошем качестве Описание: Действия сериала происходят параллельно с событиями зомби-апокалипсиса, показанными в сериале «Ходячие мертвецы», но в совершенно ... 10 10 4
Торрент: Зарегистрирован [2018-10-02 19:43] · скачан: 20 раз
Статус: √ проверено
Размер: 18.68 GB
Как cкачать? Как скачать Бойтесь ходячих мертвецов через торрент | qTorrent

% Раздел Тема Автор DL S | L
Зарубежные сериалы [ 9.81 GB ] Бойтесь ходячих мертвецов / Fear the Walking Dead / Сезон: 4 / Серии: 1-16 из 16 [2018 WEBRip] MVO [BaibaKo] bober100 Скачать
1 | 0
Зарубежные сериалы [ 56.93 GB ] Бойтесь ходячих мертвецов / Fear the Walking Dead / Сезон: 4 / Серии: 1-16 из 16 [2018 WEBRip 1080p] MVO [BaibaKo] bober100 Скачать
1 | 0
Зарубежные сериалы [ 28.89 GB ] Бойтесь ходячих мертвецов / Fear the Walking Dead / Сезон: 4 / Серии: 1-16 из 16 [2018 WEBRip 720p] MVO [BaibaKo] bober100 Скачать
1 | 0
Зарубежные сериалы [ 8.48 GB ] Бойтесь ходячих мертвецов / Fear the Walking Dead / Сезон: 4 / Серии: 1-16 из 16 [2018 HDTVRip] MVO [Jaskier] bober100 Скачать
1 | 0
Зарубежные сериалы [ 20.06 GB ] Бойтесь ходячих мертвецов / Fear the Walking Dead / Сезон: 4 / Серии: 1-16 из 16 [2018 HDTVRip 720p] MVO [ColdFilm] bober100 Скачать
1 | 0
Зарубежные сериалы [ 24.74 GB ] Бойтесь ходячих мертвецов / Fear the Walking Dead / Сезон: 4 / Серии: 1-16 из 16 [2018 WEB-DL 720p] MVO [NewStudio] bober100 Скачать
1 | 0
Зарубежные сериалы [ 8.77 GB ] Бойтесь ходячих мертвецов / Fear the Walking Dead / Сезон: 4 / Серии: 1-16 из 16 [2018 WEB-DLRip] MVO [NewStudio] bober100 Скачать
1 | 0

28-11-2019 20:33  

Отключить всю рекламу на сайте

    Дорогой пользователь! Огромная просьба, поблагодарите релизера, оцените раздачу и оставьте свои комментарий, если Вы скачали Бойтесь ходячих мертвецов через торрент бесплатно! Внесите свою лепту в развитие PiratBit!
    Комментировать посты могут только пользователи прошедшие не сложную регистрацию
    Показать сообщения:    

    Бойтесь ходячих мертвецов через торрент
    Скачать бесплатно Бойтесь ходячих мертвецов
    Бойтесь ходячих мертвецов скачать торрент
    Бойтесь ходячих мертвецов смотреть онлайн
    Cкачать фильм Бойтесь ходячих мертвецов бесплатно
    Бойтесь ходячих мертвецов скачать торрент в хорошем качестве
    Бойтесь ходячих мертвецов смотреть онлайн бесплатно в хорошем качестве


    Вы не можете начинать темы
    Вы не можете отвечать на сообщения
    Вы не можете редактировать свои сообщения
    Вы не можете удалять свои сообщения
    Вы не можете голосовать в опросах
    Вы не можете прикреплять файлы к сообщениям
    Вы можете скачивать файлы