Ссылка на приватное зеркало нашего сайта всего за 1$. Внимание количество ограничено!!!

2 сезон

iTunes

1 сезон

1

iTunes

iTunes

iTunes

1 сезон

RePack

30

ИГРА 18+

pack

ВАЖНО

!!Акция!!

Alien_RageХит недели

RePack

MK11
pack

Забери бонус

RePack

jed

!!Акция!!

Alien_Rage

RePack

fifa19

RePack

Assassins Creed: Odyssey

RePack

NEED FOR SPEED™ PAYBACK

4 сезон

9 сезон

Бесстыжие 9 сезон

Все сериалы

все сериалы на PB.wtf

RePack

FAR CRY 5
  

Возмездие / Серии: 1-4 из 4 (Олег Фесенко) [2018, остросюжетная мелодрама, WEB-DLRip] pb.wtf

Возмездие через торрент pb.wtf

Размер: 2.15 GB | Добавлен: 2 года 2 мес. назад | Торрент скачан:112 раз
Скачать  

16-08-2018 05:58 Возмездие Скачать торрент  

Возмездие Год выпуска: 2018
Производство: Дрим Фильм
Жанр: остросюжетная мелодрама
Продолжительность: ~00:45:00 серия
Субтитры: нет

Режиссёр: Олег Фесенко

В ролях:

Валерий Николаев, Дарья Савельева, Иван Товмасян, Юрий Назаров, Никита Зверев

Описание:

Череда грустных событий приходит в дом молодоженов Маруси и Павла: на грани банкротства их семейный бизнес – ресторан сгорает, умирает отец, Павла сбивает машина, а затем на него происходит покушение. Казалось бы, что может быть хуже? Павел не оставляет надежды вернуть нормальную жизнь и решает получить отцовский дом, обменяв на него… собственную жену. А сделку заключает с родным братом. Расследование о покушении на жизнь Павла поручают молодому и очень въедливому следователю Денису Горохову, который сразу же находит подозреваемого. Но так ли все просто, как кажется на первый взгляд?

Качество: WEB-DLRip
Формат: AVI
Видео кодек: XviD
Аудио кодек: AC3

Видео: 720x400 (1.80:1), 25 fps, XviD build 73 ~1500 kbps avg, 0.208 bit/pixel
Аудио: 48.0 kHz, AC3 Dolby Digital, 2/0 (L,R) ch, ~ 192 kbps
General
Complete name : D:\Возмездие (2018).WEB-DLRip.Files-x.Возмездие (2018).WEB-DLRip.Files-x.avi
Format : AVI
Format/Info : Audio Video Interleave
File size : 537 MiB
Duration : 44 min 7 s
Overall bit rate : 1 702 kb/s
Writing application : VirtualDubMod 1.5.10.3 | www.virtualdub-fr.org || (build 2550/release)
Writing library : VirtualDubMod build 2550/release

Video
ID : 0
Format : MPEG-4 Visual
Format profile : Advanced Simple@L5
Format settings : BVOP1 / Custom Matrix
Format settings, BVOP : 1
Format settings, QPel : No
Format settings, GMC : No warppoints
Format settings, Matrix : Custom
Codec ID : XVID
Codec ID/Hint : XviD
Duration : 44 min 7 s
Bit rate : 1 500 kb/s
Width : 720 pixels
Height : 400 pixels
Display aspect ratio : 16:9
Frame rate : 25.000 FPS
Color space : YUV
Chroma subsampling : 4:2:0
Bit depth : 8 bits
Scan type : Progressive
Compression mode : Lossy
Bits/(Pixel*Frame) : 0.208
Stream size : 473 MiB (88%)
Writing library : XviD 73

Audio
ID : 1
Format : AC-3
Format/Info : Audio Coding 3
Codec ID : 2000
Duration : 44 min 7 s
Bit rate mode : Constant
Bit rate : 192 kb/s
Channel(s) : 2 channels
Channel positions : Front: L R
Sampling rate : 48.0 kHz
Frame rate : 31.250 FPS (1536 SPF)
Bit depth : 16 bits
Compression mode : Lossy
Stream size : 60.6 MiB (11%)
Alignment : Split accross interleaves
Interleave, duration : 40 ms (1.00 video frame)
Interleave, preload duratio : 500 ms
Service kind : Complete Main
скриншот   скриншот   скриншот   скриншот  

скриншот   скриншот   скриншот   скриншот  
pb.wtf



Скачать Возмездие через торрент http://i103.fastpic.ru/big/2018/0815/42/6e96e18d056b35808df3d1ded0370642.jpg Скачать фильм Возмездие через торрент бесплантно в хорошем качестве Описание: Череда грустных событий приходит в дом молодоженов Маруси и Павла: на грани банкротства их семейный бизнес – ресторан сгорает, ... 10 10 7
Торрент: Зарегистрирован [2018-08-16 05:58] · скачан: 112 раз
Статус: √ проверено
Размер: 2.15 GB
Как cкачать? Как скачать Возмездие через торрент | qTorrent

% Раздел Тема Автор DL S | L
Наши сериалы [ 2.4 GB ] Возмездие / Серии: 1-4 из 4 [2019 WEB-DLRip-AVC] bober100 Скачать
1 | 0
Наши сериалы [ 2.41 GB ] Возмездие / Серии: 1-4 из 4 [2019 WEB-DLRip] bober100 Скачать
2 | 0
Наши сериалы [ 5.59 GB ] Возмездие / Серии: 1-4 из 4 [2019 WEB-DL 1080p] bober100 Скачать
1 | 0
Наши сериалы [ 2.41 GB ] Возмездие / Серия 1-4 из 4 [2018 Мело SATRip] oleg8 Скачать
1 | 0
Возмездие [ 12.35 GB ] Возмездие / Месть / Revenge / Сезон: 4 / Серии: 1-23 из 23 [2014 WEB-DLRip] [DVO] killermax2013 Скачать
1 | 0

28-11-2019 20:33  

Отключить всю рекламу на сайте

16-03-2020 04:58 Возмездие Скачать торрент  

кто и с кем там спал так и не поняли.и следак лох отпустил тётку.

короче-смотреть всемpb.wtf



    Дорогой пользователь! Огромная просьба, поблагодарите релизера, оцените раздачу и оставьте свои комментарий, если Вы скачали Возмездие через торрент бесплатно! Внесите свою лепту в развитие PiratBit!
    Комментировать посты могут только пользователи прошедшие не сложную регистрацию
    Показать сообщения:    

    Возмездие через торрент
    Скачать бесплатно Возмездие
    Возмездие скачать торрент
    Возмездие смотреть онлайн
    Cкачать фильм Возмездие бесплатно
    Возмездие скачать торрент в хорошем качестве
    Возмездие смотреть онлайн бесплатно в хорошем качестве


    Вы не можете начинать темы
    Вы не можете отвечать на сообщения
    Вы не можете редактировать свои сообщения
    Вы не можете удалять свои сообщения
    Вы не можете голосовать в опросах
    Вы не можете прикреплять файлы к сообщениям
    Вы можете скачивать файлы