новый адрес пиратбит piratbit
Мега распродажа FORZA HORIZON 4 ULTIMATE+ВСЕ DLC+ОНЛАЙН всего за 499р. 349 руб. (супер цена). Внимание количество ограничено!!!

iTunes

1+1

iTunes

мы

iTunes

1

iTunes

Чернобыль

iTunes

Ральф против интернета

Лицензия

ПШазам

Лицензия

Игра престолов

Лицензия

30
pack

ВАЖНО

!!Акция!!

Alien_RageХит недели

RePack

Resident Evil 21

ИГРА 18+

pack

RePack

Metro:Exodus

!!Акция!!

Alien_Rage

RePack

fifa19

RePack

Assassins Creed: Odyssey

RePack

NEED FOR SPEED™ PAYBACK

3 сезон

9 сезон

Бесстыжие 9 сезон

Все сериалы

все сериалы на PB.wtf

RePack

FAR CRY 5
Ребята, катастрофически не хватает 1900р. для оплаты серверов за Октябрь (всвязи с блокировками трафик упал в 3 раза), 1-2р., выручайте.
  

Живет такой парень (Василий Шукшин) [1964, СССР, мелодрама, комедия, DVDRip от AVP Studio] pb.wtf

Живет такой парень через торрент pb.wtf

Размер: 746 MB | Добавлен: 1 год 2 мес. назад | Торрент скачан:17 раз
Скачать  

17-08-2018 08:00 Живет такой парень Скачать торрент  

Живет такой парень
Страна: СССР
Производство: Киностудия им. М. Горького

Жанр: мелодрама, комедия
Год выпуска: 1964
Продолжительность: 01:35:16

Перевод: Не требуется
Cубтитры: нет
Оригинальная аудиодорожка: русский

Режиссер: Василий Шукшин

В ролях:
Леонид Куравлёв, Лидия Чащина, Лариса Буркова, Ренита Григорьева, Нина Сазонова, Анастасия Зуева, Белла Ахмадулина, Борис Балакин, Родион Нахапетов, Виктор Филиппов, Иван Рыжов, Николай Федорцов, Евгений Тетерин, Борис Романов...
Об актёрах подробней

Описание:
По мотивам рассказов В. Шукшина.
Киноповесть о простом алтайском шофере Пашке Колокольникове, бесконечно влюбленном в жизнь, веселом, добром и отзывчивом, который, рискуя жизнью, предотвращает пожар бензовоза. Балагур с набором пошловатых, провинциальных присказок и выраженьиц, он любит розыгрыш, любит распустить хвост, приврать, пошутить и поприкалываться, но может и подвиг совершить.

Источник: DVD9 R5
Качество видео: DVDRip
Формат видео: AVI

Видео: 640х448 (1,429:1), 25 fps, XviD ~ 957 kbps avg, 0.133 bit/pixel
Аудио: 48 kHz, MP3 2.0, 128 kbps

Раздача от:
Общее
Полное имя : ZHivet.takoy.paren.1964.DVDRip-745_[New-team]_by_AVP_Studio.avi
Формат : AVI
Формат/Информация : Audio Video Interleave
Размер файла : 746 Мбайт
Продолжительность : 1 ч. 35 м.
Общий поток : 1094 Кбит/сек
Программа кодирования : VirtualDubMod 1.5.10.3 | www.virtualdub-fr.org || (build 2550/release)
Библиотека кодирования : VirtualDubMod build 2550/release

Видео
Идентификатор : 0
Формат : MPEG-4 Visual
Профиль формата : Advanced Simple@L5
Настройки формата : BVOP1 / Custom Matrix
Параметр BVOP формата : 1
Параметр QPel формата : Нет
Параметр GMC формата : Без точки перехода
Параметр матрицы формата : Выборочная
Идентификатор кодека : XVID
Идентификатор кодека/Подсказка : XviD
Продолжительность : 1 ч. 35 м.
Битрейт : 957 Кбит/сек
Ширина : 640 пикселей
Высота : 448 пикселей
Соотношение сторон : 1,429
Частота кадров : 25,000 кадров/сек
Цветовое пространство : YUV
Субдискретизация насыщенности : 4:2:0
Битовая глубина : 8 бит
Тип развёртки : Прогрессивная
Метод сжатия : С потерями
Бит/(Пиксели*Кадры) : 0.133
Размер потока : 652 Мбайт (87%)
Библиотека кодирования : XviD 73

Аудио
Идентификатор : 1
Формат : MPEG Audio
Версия формата : Version 1
Профиль формата : Layer 3
Идентификатор кодека : 55
Идентификатор кодека/Подсказка : MP3
Продолжительность : 1 ч. 35 м.
Вид битрейта : Постоянный
Битрейт : 128 Кбит/сек
Каналы : 2 канала
Частота : 48,0 КГц
Частота кадров : 41,667 кадра/сек (1152 SPF)
Метод сжатия : С потерями
Размер потока : 87,2 Мбайт (12%)
Выравнивание : Соединение по промежуткам
Продолжительность промежутка : 40 мс. (1,00 видеокадр)
Время предзагрузки промежутка : 504 мс.
Библиотека кодирования : LAME3.99r
Настройки программы : -m s -V 4 -q 2 -lowpass 17 -b 128
pb.wtf



Скачать Живет такой парень через торрент http://picplus.ru/img/1808/17/5fb1b4bd.png Скачать фильм Живет такой парень через торрент бесплантно в хорошем качестве Описание:По мотивам рассказов В. Шукшина.Киноповесть о простом алтайском шофере Пашке Колокольникове, бесконечно влюбленном в жизнь, ... 10 10 1
Info! Золотая раздача, скачанное не засчитывается.
Торрент: Зарегистрирован [2018-08-17 08:00] · скачан: 17 раз
Статус: √ проверено
Размер: 746 MB
Как cкачать? Как скачать Живет такой парень через торрент | qTorrent

% Раздел Тема Автор DL S | L
Кино СССР [ 1.46 GB ] Живет такой парень [1964 СССР DVDRip-AVC от AVP Studio] AVP Studio Скачать
1 | 0
Кино СССР [ 1.46 GB ] Живет такой парень [1964 СССР DVDRip от AVP Studio] AVP Studio Скачать
1 | 0


>> Регистрируемся здесь <<






Отзывы и комментарии о схеме читаем и пишем здесь: ---> Отзывы и комментарии о схеме

Новые благодарочки в телеграм довольных пользователей:
скриншот   скриншот   скриншот   скриншот   скриншот
    Дорогой пользователь! Огромная просьба, поблагодарите релизера, оцените раздачу и оставьте свои комментарий, если Вы скачали Живет такой парень через торрент бесплатно! Внесите свою лепту в развитие PiratBit!
    Комментировать посты могут только пользователи прошедшие не сложную регистрацию
    Показать сообщения:    

    Живет такой парень через торрент
    Скачать бесплатно Живет такой парень
    Живет такой парень скачать торрент
    Живет такой парень смотреть онлайн
    Cкачать фильм Живет такой парень бесплатно
    Живет такой парень скачать торрент в хорошем качестве
    Живет такой парень смотреть онлайн бесплатно в хорошем качестве


    Вы не можете начинать темы
    Вы не можете отвечать на сообщения
    Вы не можете редактировать свои сообщения
    Вы не можете удалять свои сообщения
    Вы не можете голосовать в опросах
    Вы не можете прикреплять файлы к сообщениям
    Вы можете скачивать файлы