новый адрес
Мега распродажа FORZA HORIZON 4 ULTIMATE+ВСЕ DLC+ОНЛАЙН всего за 499р. 349 руб. (супер цена). Внимание количество ограничено!!!

iTunes

1+1

iTunes

мы

iTunes

1

iTunes

Чернобыль

iTunes

Ральф против интернета

Лицензия

ПШазам

Лицензия

Игра престолов

Лицензия

30
pack

ВАЖНО

!!Акция!!

Alien_RageХит недели

RePack

Resident Evil 21

ИГРА 18+

pack

RePack

Metro:Exodus

!!Акция!!

Alien_Rage

RePack

fifa19

RePack

Assassins Creed: Odyssey

RePack

NEED FOR SPEED™ PAYBACK

3 сезон

9 сезон

Бесстыжие 9 сезон

Все сериалы

все сериалы на PB.wtf

RePack

FAR CRY 5
Ребята, катастрофически не хватает 1900р. для оплаты серверов за Октябрь (всвязи с блокировками трафик упал в 3 раза), 1-2р., выручайте.
  

Живет такой парень (Василий Шукшин) [1964, СССР, мелодрама, комедия, DVDRip-AVC от AVP Studio] pb.wtf

Живет такой парень через торрент pb.wtf

Размер: 1.46 GB | Добавлен: 1 год 3 мес. назад | Торрент скачан:43 раза
Скачать  

17-08-2018 08:02 Живет такой парень Скачать торрент  

Живет такой парень
Страна: СССР
Производство: Киностудия им. М. Горького

Жанр: мелодрама, комедия
Год выпуска: 1964
Продолжительность: 01:35:16

Перевод: Не требуется
Cубтитры: нет
Оригинальная аудиодорожка: русский

Режиссер: Василий Шукшин

В ролях:
Леонид Куравлёв, Лидия Чащина, Лариса Буркова, Ренита Григорьева, Нина Сазонова, Анастасия Зуева, Белла Ахмадулина, Борис Балакин, Родион Нахапетов, Виктор Филиппов, Иван Рыжов, Николай Федорцов, Евгений Тетерин, Борис Романов...
Об актёрах подробней

Описание:
По мотивам рассказов В. Шукшина.
Киноповесть о простом алтайском шофере Пашке Колокольникове, бесконечно влюбленном в жизнь, веселом, добром и отзывчивом, который, рискуя жизнью, предотвращает пожар бензовоза. Балагур с набором пошловатых, провинциальных присказок и выраженьиц, он любит розыгрыш, любит распустить хвост, приврать, пошутить и поприкалываться, но может и подвиг совершить.

Источник: DVD9 R5
Качество видео: DVDRip-AVC
Формат видео: MKV

Видео: 716->788х556 (1,421:1), 25 fps, H264 ~ 1742 kbps avg, 0.175 bit/pixel
Аудио: 48 kHz, Dolby Digital AC3 5.1, 448 kbps

Раздача от:
Общее
Полное имя : ZHivet.takoy.paren.1964.DVDRip-AVC_[New-team]_by_AVP_Studio.mkv
Формат : Matroska
Версия формата : Version 2
Размер файла : 1,46 Гбайт
Продолжительность : 1 ч. 35 м.
Общий поток : 2191 Кбит/сек
Дата кодирования : UTC 2018-08-15 13:58:59
Программа кодирования : mkvmerge v6.1.0 ('Old Devil') built on Mar 4 2013 09:10:42
Библиотека кодирования : libebml v1.3.0 + libmatroska v1.4.0

Видео
Идентификатор : 1
Формат : AVC
Формат/Информация : Advanced Video Codec
Профиль формата : High@L4.1
Настройки формата : CABAC / 10 Ref Frames
Параметр CABAC формата : Да
Параметр RefFrames формата : 10 кадров
Идентификатор кодека : V_MPEG4/ISO/AVC
Продолжительность : 1 ч. 35 м.
Битрейт : 1742 Кбит/сек
Ширина : 716 пикселей
Высота : 556 пикселей
Соотношение сторон : 1,421
Соотношение сторон в оригинале : 1,420
Режим частоты кадров : Постоянный
Частота кадров : 25,000 кадров/сек
Цветовое пространство : YUV
Субдискретизация насыщенности : 4:2:0
Битовая глубина : 8 бит
Тип развёртки : Прогрессивная
Бит/(Пиксели*Кадры) : 0.175
Размер потока : 1,13 Гбайт (78%)
Библиотека кодирования : x264 core 130 r2273 b3065e6
Настройки программы : cabac=1 / ref=10 / deblock=1:-2:-1 / analyse=0x3:0x113 / me=umh / subme=10 / psy=1 / psy_rd=1.00:0.00 / mixed_ref=1 / me_range=32 / chroma_me=1 / trellis=2 / 8x8dct=1 / cqm=0 / deadzone=21,11 / fast_pskip=1 / chroma_qp_offset=-2 / threads=6 / lookahead_threads=1 / sliced_threads=0 / nr=0 / decimate=0 / interlaced=0 / bluray_compat=0 / constrained_intra=0 / bframes=8 / b_pyramid=2 / b_adapt=2 / b_bias=0 / direct=3 / weightb=1 / open_gop=0 / weightp=2 / keyint=250 / keyint_min=25 / scenecut=40 / intra_refresh=0 / rc=2pass / mbtree=0 / bitrate=1742 / ratetol=1.0 / qcomp=0.60 / qpmin=0 / qpmax=69 / qpstep=4 / cplxblur=20.0 / qblur=0.5 / ip_ratio=1.40 / pb_ratio=1.30 / aq=1:1.00
Default : Да
Forced : Нет

Аудио
Идентификатор : 2
Формат : AC-3
Формат/Информация : Audio Coding 3
Идентификатор кодека : A_AC3
Продолжительность : 1 ч. 35 м.
Вид битрейта : Постоянный
Битрейт : 448 Кбит/сек
Каналы : 6 каналов
Расположение каналов : Front: L C R, Side: L R, LFE
Частота : 48,0 КГц
Частота кадров : 31,250 кадров/сек (1536 SPF)
Битовая глубина : 16 бит
Метод сжатия : С потерями
Размер потока : 305 Мбайт (20%)
Default : Да
Forced : Нет
pb.wtf



Скачать Живет такой парень через торрент http://picplus.ru/img/1808/17/5fb1b4bd.png Скачать фильм Живет такой парень через торрент бесплантно в хорошем качестве Описание:По мотивам рассказов В. Шукшина.Киноповесть о простом алтайском шофере Пашке Колокольникове, бесконечно влюбленном в жизнь, ... 10 10 3
Info! Золотая раздача, скачанное не засчитывается.
Торрент: Зарегистрирован [2018-08-17 08:02] · скачан: 43 раз
Статус: √ проверено
Размер: 1.46 GB
Как cкачать? Как скачать Живет такой парень через торрент | qTorrent

% Раздел Тема Автор DL S | L
Кино СССР [ 746 MB ] Живет такой парень [1964 СССР DVDRip от AVP Studio] AVP Studio Скачать
1 | 0
Кино СССР [ 1.46 GB ] Живет такой парень [1964 СССР DVDRip от AVP Studio] AVP Studio Скачать
1 | 0


>> Регистрируемся здесь <<






Отзывы и комментарии о схеме читаем и пишем здесь: ---> Отзывы и комментарии о схеме

Новые благодарочки в телеграм довольных пользователей:
скриншот   скриншот   скриншот   скриншот   скриншот
    Дорогой пользователь! Огромная просьба, поблагодарите релизера, оцените раздачу и оставьте свои комментарий, если Вы скачали Живет такой парень через торрент бесплатно! Внесите свою лепту в развитие PiratBit!
    Комментировать посты могут только пользователи прошедшие не сложную регистрацию
    Показать сообщения:    

    Живет такой парень через торрент
    Скачать бесплатно Живет такой парень
    Живет такой парень скачать торрент
    Живет такой парень смотреть онлайн
    Cкачать фильм Живет такой парень бесплатно
    Живет такой парень скачать торрент в хорошем качестве
    Живет такой парень смотреть онлайн бесплатно в хорошем качестве


    Вы не можете начинать темы
    Вы не можете отвечать на сообщения
    Вы не можете редактировать свои сообщения
    Вы не можете удалять свои сообщения
    Вы не можете голосовать в опросах
    Вы не можете прикреплять файлы к сообщениям
    Вы можете скачивать файлы