Anonymous, доброй ночи, присоединяйтесь к нам в Telegram!, здесь всегда актуальный адрес сайта, оперативная поддержка и многое другое!

>

5.5

iTunes

7.4

iTunes

7.9

iTunes

1

7.7

1 сезон

6.8

iTunes

7.3

1 сезон

13

6.7

1 сезон

8.3

RePack

30

ULTIMATE

pack

9.9

Лицензия

ВАЖНО

ИГРА 18+

pack

7.3

RePack

MK11

7.7

RePack

jed

7.8

RePack

fifa19

8.5

RePack

RDR2

RePack

NEED FOR SPEED™ PAYBACK

4 сезон

9 сезон

Бесстыжие 9 сезон

Все сериалы

все сериалы на PB.wtf

RePack

FAR CRY 5

Anonymous, доброй ночи, мы катастрофически не успеваем собрать деньги на оплату серверов, помогите нам пожалуйста 5,10,15р., для нас важна любая помощь . В качестве благодарности мы отключим Вам всю рекламу на сайте (укажите свой ник в строку Ваше имя)!

×
  
Magnet ссылка

Домашний арест / Сезон: 1 / Серии: 1-12 из 12 (Пётр Буслов) [2018, комедия, WEB-DL 1080p] pb.wtf

Домашний арест через торрент pb.wtf

Размер: 27.77 GB | Добавлен: 1 год 5 мес. назад | Торрент скачан:98 раз
Смотреть онлайн Домашний арест | Скачать    Ребята, помогите собрать деньги на оплату серверов!!!

17-08-2018 14:58 Домашний арест Скачать торрент  

Домашний арест Год выпуска: 2018
Страна: Россия
Жанр: комедия
Продолжительность: ~ 01:07:00
Перевод: Не требуется
Субтитры: отсутствуют

Режиссер: Пётр Буслов

В ролях: Павел Деревянко, Александр Робак, Егор Клинаев, Юлия Сорокина, Анна Уколова, Тимофей Трибунцев, Марина Александрова, Сергей Бурунов, Илья Коврижных, Виктория Самилкина

Описание: Мэр небольшого города попался на взятке и в качестве меры пресечения ему назначен домашний арест по месту прописки. Коллизия в том, что, чтобы казаться скромнее, чиновник прописан не в своем особняке, а в коммунальной квартире, в которой когда-то родился и вырос. Так он попадает в коммунальный ад своей старой квартиры. Он больше не главный и сам в свою очередь оказывается во власти простых обитателей коммуналки.

rating

Качество: WEB-DL 1080p
Формат: MKV

Видео: 1920x1080, (16:9), 25 fps, AVC MPEG-TS (x264), High@L4 ~ 4500 kbps , 0.085 bit/pixel
Аудио: AC3, 48.0 kHz, 2/0 (L,R) ch, 192 kbps
скриншот  скриншот  скриншот  скриншот  скриншот  

Общее
Уникальный идентификатор : 182637289427507144468216410737869846849 (0x8966A9977035F70481798B0FB41FF941)
Полное имя : C:Домашний арест\Домашний арест (01 сер.) - web-dl1080p.mkv
Формат : Matroska
Версия формата : Version 2
Размер файла : 2,15 Гбайт
Продолжительность : 1 ч. 7 м.
Режим общего битрейта : Переменный
Общий поток : 4 571 Кбит/сек
Дата кодирования : UTC 2020-05-18 13:13:37
Программа кодирования : mkvmerge v7.8.0 ('River Man') 32bit built on Apr 3 2015 12:11:22
Библиотека кодирования : libebml v1.3.1 + libmatroska v1.4.2

Видео
Идентификатор : 1
Формат : AVC
Формат/Информация : Advanced Video Codec
Профиль формата : High@L4
Настройки формата : CABAC / 1 Ref Frames
Параметр CABAC формата : Да
Параметр RefFrames формата : 1 кадр
Параметр GOP формата : M=1, N=50
Идентификатор кодека : V_MPEG4/ISO/AVC
Продолжительность : 1 ч. 7 м.
Вид битрейта : Переменный
Битрейт : 4 500 Кбит/сек
Максимальный битрейт : 4 500 Кбит/сек
Ширина : 1 920 пикселей
Высота : 1 072 пикселя
Соотношение сторон : 16:9
Режим частоты кадров : Постоянный
Частота кадров : 25,000 кадров/сек
Цветовое пространство : YUV
Субдискретизация насыщенности : 4:2:0
Битовая глубина : 8 бит
Тип развёртки : Прогрессивная
Бит/(Пиксели*Кадры) : 0.085
Размер потока : 2,02 Гбайт (94%)
Default : Да
Forced : Нет
Duration_Source : General_Duration

Аудио
Идентификатор : 2
Формат : AC-3
Формат/Информация : Audio Coding 3
Коммерческое название : Dolby Digital
Идентификатор кодека : A_AC3
Продолжительность : 1 ч. 7 м.
Вид битрейта : Постоянный
Битрейт : 192 Кбит/сек
Каналы : 2 канала
Channel layout : L R
Частота : 44,1 КГц
Частота кадров : 28,711 кадров/сек (1536 SPF)
Метод сжатия : С потерями
Размер потока : 92,5 Мбайт (4%)
Service kind : Complete Main
Default : Да
Forced : Нет
Duration_Source : General_Duration

Внимание! Раздача ведётся путём добавления новых серий; при каждом добавлении создfётся новый торрент. Чтобы начать докачку новой серии, пользователям необходимо сделать следующее: (1) остановить скачивание, (2) удалить старый торрент у себя из клиента (старые серии удалять не надо), (3) скачать новый торрент и запустить его у себя в клиенте вместо старого, при этом указать клиенту путь в старую папку куда и должно происходить скачивание новых серий.

Ваш клиент при этом должен произвести хеширование (проверку) старой папки (если не производит сам - помогите ему сделать это), и будет докачивать только те серии которых у вас ещё нет. Старые серии при этом не удаляются, а продолжают раздаваться!

Eсли вы уже удалили старые серии, то предотвратить повторную закачку старых серий можно, отжав галочку в соответсвующих местах при запуске нового торрента.
pb.wtf



Скачать Домашний арест через торрент https://i5.imageban.ru/out/2018/10/21/65db42b0bb2c1b474ea98571a05afce5.png Скачать, смотреть онлайн Домашний арест бесплантно в хорошем качестве Описание: Мэр небольшого города попался на взятке и в качестве меры пресечения ему назначен домашний арест по месту прописки. Коллизия в ... 9.8 10 58
Торрент: Зарегистрирован [2020-05-26 07:20] · скачан: 98 раз
Статус: √ проверено
Размер: 27.77 GB
Как cкачать? Как скачать Домашний арест через торрент | UTorrent

% Раздел Тема Автор DL S | L
TNT serials [ 13.22 GB ] Домашний арест / Сезон: 1 / Серии: 1-12 из 12 [2018 WEB-DLRip-AVC] bober100 Скачать
2 | 0
TNT serials [ 16.54 GB ] Домашний арест / Сезон: 1 / Серии: 1-12 из 12 [2018 WEB-DL 720p] bober100 Скачать
2 | 0
TNT serials [ 9.94 GB ] Домашний арест / Сезон: 1 / Серии: 1-12 из 12 [2018 WEBRip-AVC] sokol_ok Скачать
8 | 0
TNT serials [ 11.2 GB ] Домашний арест / Сезон: 1 / Серии: 1-12 из 12 [2018 WEB-DLRip-AVC] - ExKinoRay Enigma2010 Скачать
1 | 0
TNT serials [ 11.22 GB ] Домашний арест / Сезон: 1 / Серии: 1-12 из 12 [2018 WEB-DLRip] bober100 Скачать
2 | 0


Последний раз редактировалось: bober100 (2020-05-26 07:22), всего редактировалось 13 раз(а)

28-11-2019 20:33  

Отключить всю рекламу на сайте

    Дорогой пользователь! Огромная просьба, поблагодарите релизера, оцените раздачу и оставьте свои комментарий, если Вы скачали Домашний арест через торрент бесплатно!
    Комментировать посты могут только пользователи прошедшие не сложную регистрацию
    Показать сообщения:    

    Домашний арест через торрент
    Скачать бесплатно Домашний арест
    Домашний арест скачать торрент
    Домашний арест смотреть онлайн
    Cкачать фильм Домашний арест бесплатно
    Домашний арест скачать торрент в хорошем качестве
    Домашний арест смотреть онлайн бесплатно в хорошем качестве


    Вы не можете начинать темы
    Вы не можете отвечать на сообщения
    Вы не можете редактировать свои сообщения
    Вы не можете удалять свои сообщения
    Вы не можете голосовать в опросах
    Вы не можете прикреплять файлы к сообщениям
    Вы можете скачивать файлы