Достать ножи: Стеклянная луковица

MVO

Добыча

Дубляж

Уэнсдэй

1 сезон

Тор

Дубляж

13 клиническая

1 сезон

Жестокая ночь

MVO

Одни из нас

1 сезон

Deluxe

pack

Рекомендуем

30

Пиратка

ВАЖНО

ВАЖНО

Ghostwire

Пиратка

jed

RePack

nioh2

RePack

RDR2

RePack

NEED FOR SPEED™ PAYBACK

RePack

скачать торрент

Кинопоиск HD

Острые козырьки 6 сезон

6 сезон

FAR CRY 6

RePack

скачать торрент

Лицензия

скачать торрент

MVO

1

1 сезон

скачать торрент

1 сезон

скачать торрент

Лицензия

  

Париж. Город Zомби / The Night Eats the World / La nuit a dévoré le monde (Доминик Роше) [2018, ужасы, BDRip 1080p] MVO [iTunes]

Париж. Город Zомби через торрент pb.wtf

Размер: 7.24 GB | Добавлен: 4 года 5 мес. назад | Торрент скачан:450 раз
Смотреть онлайн | Скачать | Поддержите нас   

17-08-2018 15:10 Париж. Город Zомби Скачать торрент  

Париж. Город Zомби / The Night Eats the World / La nuit a dévoré le monde
Год выпуска: 2018
Страна: Франция
Жанр: ужасы
Продолжительность: 01:33:30
Перевод: Профессиональный (многоголосый) | iTunes
Субтитры: Русские (full), английские

Режиссер: Доминик Роше

rating

В ролях:

Андерс Даниелсен Лье, Голшифте Фарахани, Дени Лаван, Сигрид Буази, Дэвид Камменос, Жан-Ив Силли, Нэнси Мурильо, Лина-Роуз Джедже, Виктор Ван Дер Верд, Лео Пуле

Описание:

На утро после шумной вечеринки Сэм обнаруживает, что его бывшая, ее новый бойфренд и вообще все вокруг превратились в зомби. И единственное место на весь Париж, где он может чувствовать себя в безопасности, — это квартира, где он проснулся. Что делать? Бежать или остаться? Защищаться или нападать самому?

Качество: BDRip 1080p
Формат: MKV

Видео: MPEG-4 AVC, 1920x1036, 9185 Kbit/s, 24.000 fps
Аудио#1: 48 kHz, AC3, 5.1, 384 Kbps | iTunes | RUS |
Аудио#2: 48 kHz, DTS, 5.1, 1510 Kbps | Оригинал | ENG |
скриншот  
скриншот  скриншот  скриншот  скриншот  скриншот  

General
Unique ID : 177728731524970061954662314808549769598 (0x85B54F008D9956169B0A78E6ADDF017E)
Complete name : D:Video111The.Night.Eats.the.World.2018.BDRip.1080p.ExKinoRay.mkv
Format : Matroska
Format version : Version 4 / Version 2
File size : 7.24 GiB
Duration : 1 h 33 min
Overall bit rate : 11.1 Mb/s
Movie name : The Night Eats the World 2018 from ExKinoRay
Encoded date : UTC 2018-08-17 13:37:02
Writing application : mkvmerge v7.3.0 ('Nouages') 64bit built on Oct 22 2014 18:53:34
Writing library : libebml v1.3.0 + libmatroska v1.4.1

Video
ID : 1
Format : AVC
Format/Info : Advanced Video Codec
Format profile : [email protected]
Format settings : CABAC / 4 Ref Frames
Format settings, CABAC : Yes
Format settings, ReFrames : 4 frames
Codec ID : V_MPEG4/ISO/AVC
Duration : 1 h 33 min
Bit rate : 9 185 kb/s
Width : 1 920 pixels
Height : 1 036 pixels
Display aspect ratio : 1.85:1
Frame rate mode : Constant
Frame rate : 24.000 FPS
Color space : YUV
Chroma subsampling : 4:2:0
Bit depth : 8 bits
Scan type : Progressive
Bits/(Pixel*Frame) : 0.192
Stream size : 6.00 GiB (83%)
Writing library : x264 core 142 r2431+42 c69a006 tMod [[email protected]:2:0 X86_64]
Encoding settings : cabac=1 / ref=4 / deblock=1:-3:-3 / analyse=0x3:0x113 / me=umh / subme=10 / psy=1 / fade_compensate=0.00 / psy_rd=1.00:0.05 / mixed_ref=1 / me_range=48 / chroma_me=1 / trellis=2 / 8x8dct=1 / cqm=0 / deadzone=21,11 / fast_pskip=0 / chroma_qp_offset=-2 / threads=48 / lookahead_threads=8 / sliced_threads=0 / nr=0 / decimate=1 / interlaced=0 / bluray_compat=0 / constrained_intra=0 / fgo=0 / bframes=8 / b_pyramid=2 / b_adapt=2 / b_bias=0 / direct=3 / weightb=1 / open_gop=0 / weightp=2 / keyint=250 / keyint_min=24 / scenecut=40 / intra_refresh=0 / rc_lookahead=40 / rc=crf / mbtree=0 / crf=18.1000 / qcomp=0.60 / qpmin=0:0:0 / qpmax=69:69:69 / qpstep=4 / vbv_maxrate=40000 / vbv_bufsize=30000 / crf_max=0.0 / nal_hrd=none / filler=0 / ip_ratio=1.40 / pb_ratio=1.30 / aq=3:0.80 / aq-sensitivity=10.00 / aq-factor=1.00:1.00:1.00 / aq2=0 / aq3=0
Language : English
Default : Yes
Forced : No
Color range : Limited
Matrix coefficients : BT.709

Audio #1
ID : 2
Format : AC-3
Format/Info : Audio Coding 3
Commercial name : Dolby Digital
Codec ID : A_AC3
Duration : 1 h 33 min
Bit rate mode : Constant
Bit rate : 384 kb/s
Channel(s) : 6 channels
Channel positions : Front: L C R, Side: L R, LFE
Sampling rate : 48.0 kHz
Frame rate : 31.250 FPS (1536 SPF)
Bit depth : 16 bits
Compression mode : Lossy
Stream size : 257 MiB (3%)
Title : iTunes
Language : Russian
Service kind : Complete Main
Default : Yes
Forced : Yes

Audio #2
ID : 3
Format : DTS
Format/Info : Digital Theater Systems
Codec ID : A_DTS
Duration : 1 h 33 min
Bit rate mode : Constant
Bit rate : 1 509 kb/s
Channel(s) : 6 channels
Channel positions : Front: L C R, Side: L R, LFE
Sampling rate : 48.0 kHz
Frame rate : 93.750 FPS (512 SPF)
Bit depth : 24 bits
Compression mode : Lossy
Stream size : 1 009 MiB (14%)
Title : Original
Language : English
Default : No
Forced : No

Text #1
ID : 4
Format : UTF-8
Codec ID : S_TEXT/UTF8
Codec ID/Info : UTF-8 Plain Text
Duration : 1 h 28 min
Bit rate : 13 b/s
Count of elements : 215
Stream size : 9.01 KiB (0%)
Title : full
Language : Russian
Default : No
Forced : No

Text #2
ID : 5
Format : UTF-8
Codec ID : S_TEXT/UTF8
Codec ID/Info : UTF-8 Plain Text
Duration : 1 h 30 min
Bit rate : 14 b/s
Count of elements : 412
Stream size : 9.63 KiB (0%)
Title : SDH
Language : English
Default : No
Forced : No

Menu
00:00:00.000 : en:Chapter 1
00:08:14.875 : en:Chapter 2
00:16:22.500 : en:Chapter 3
00:24:28.792 : en:Chapter 4
00:33:04.917 : en:Chapter 5
00:43:06.208 : en:Chapter 6
00:51:41.875 : en:Chapter 7
01:01:50.417 : en:Chapter 8
01:10:35.917 : en:Chapter 9
01:20:13.542 : en:Chapter 10
01:30:31.333 : en:Chapter 11




Скачать Париж. Город Zомби через торрент http://img11.lostpic.net/2018/08/17/698cf88a304434b0391b6629fae3620d.jpg Скачать, смотреть онлайн Париж. Город Zомби бесплантно в хорошем качестве Описание: На утро после шумной вечеринки Сэм обнаруживает, что его бывшая, ее новый бойфренд и вообще все вокруг превратились в зомби. И ... 9.7 10 13
Info! Золотая раздача, скачанное не засчитывается.
Торрент: Зарегистрирован [2018-08-17 15:10] · скачан: 450 раз
Статус: √ проверено
Размер: 7.24 GB
Как cкачать? Как скачать Париж. Город Zомби через торрент | UTorrent

% Раздел Тема Автор DL S | L
Фильмы 2018 [DVDrip, WEB-DLRip, HDrip] (DUB, MVO) [ 1.42 GB ] Париж. Город Zомби / The Night Eats the World / La nuit a dévoré le monde | Лицензия | BDRip Twi7ter Скачать
1 | 0
Фильмы 2018 [DVDrip, WEB-DLRip, HDrip] (DUB, MVO) [ 1.55 GB ] Париж. Город Zомби / The Night Eats the World / La nuit a dévoré le monde | iTunes | BDRip-AVC bober100 Скачать
1 | 0
Фильмы 2018 [DVDrip, WEB-DLRip, HDrip] (DUB, MVO) [ 745 MB ] Париж. Город Zомби / The Night Eats the World / La nuit a dévoré le monde | iTunes | BDRip bober100 Скачать
1 | 0
Фильмы (Blu-ray, BD-Remux, HDDVD) [ 16.12 GB ] Париж. Город Zомби / The Night Eats the World / La nuit a dévoré le monde | iTunes | BD Remux 1080p bober100 Скачать
1 | 0
Фильмы с авторской озвучкой [ 1.46 GB ] Париж. Город Zомби / The Night Eats the World / La nuit a dévoré le monde | AVO | BDRip Twi7ter Скачать
1 | 0
T Фильмы с авторской озвучкой [ 7.84 GB ] Париж. Город Zомби / The Night Eats the World / La nuit a dévoré le monde | AVO | 1080p bober100 Скачать
1 | 0

28-11-2019 20:33  


Отключить вcю реклaмy на сайте, в т.ч. и в плеере онлайн просмотра!

19-08-2018 07:35 Париж. Город Zомби Скачать торрент  

среднячок



19-11-2018 16:35 Париж. Город Zомби Скачать торрент  

для любителей жанра норм.
концовка не понятная.



    Дорогой пользователь! Огромная просьба, поблагодарите релизера, оцените раздачу и оставьте свои комментарий, если Вы скачали Париж. Город Zомби через торрент бесплатно!!
    Комментировать посты могут только пользователи прошедшие не сложную регистрацию
    Показать сообщения:    


    Париж. Город Zомби через торрент
    Скачать бесплатно Париж. Город Zомби
    Париж. Город Zомби скачать торрент
    Париж. Город Zомби смотреть онлайн
    Cкачать фильм Париж. Город Zомби бесплатно
    Париж. Город Zомби скачать торрент в хорошем качестве
    Париж. Город Zомби смотреть онлайн бесплатно в хорошем качестве
    Вы не можете начинать темы
    Вы не можете отвечать на сообщения
    Вы не можете редактировать свои сообщения
    Вы не можете удалять свои сообщения
    Вы не можете голосовать в опросах
    Вы не можете прикреплять файлы к сообщениям
    Вы можете скачивать файлы
    Париж. Город Zомби / The Night Eats the World / La nuit a dévoré le monde [2018, ужасы, BDRip 1080p] MVO [iTunes] смотреть онлайн, скачать торрент picoco.icu