Доктор Стрэндж

Лицензия

Добыча

Дубляж

Дом дракона

1 сезон

Тор

Дубляж

В эфире

Дубляж

Там, где раки поют

MVO

Властелин колец

1 сезон

GLOBAL

pack

Рекомендуем

30

Пиратка

ВАЖНО

ВАЖНО

Ghostwire

Пиратка

jed

RePack

nioh2

RePack

RDR2

RePack

NEED FOR SPEED™ PAYBACK

RePack

скачать торрент

Кинопоиск HD

Острые козырьки 6 сезон

6 сезон

FAR CRY 6

RePack

скачать торрент

Лицензия

скачать торрент

MVO

1

1 сезон

скачать торрент

1 сезон

скачать торрент

Лицензия

  

Париж. Город Zомби / The Night Eats the World / La nuit a dévoré le monde (Доминик Роше) [2018, ужасы, BD Remux 1080p] MVO [iTunes]

Париж. Город Zомби через торрент pb.wtf

Размер: 16.12 GB | Добавлен: 4 года 3 мес. назад | Торрент скачан:61 раз
Смотреть онлайн | Скачать   

17-08-2018 15:21 Париж. Город Zомби Скачать торрент  

Париж. Город Zомби / The Night Eats the World / La nuit a dévoré le monde
Год выпуска: 2018
Страна: Франция
Жанр: ужасы
Продолжительность: 01:33:30
Перевод: Профессиональный (многоголосый) | iTunes
Субтитры: Русские (full), английские

Режиссер: Доминик Роше

rating

В ролях:

Андерс Даниелсен Лье, Голшифте Фарахани, Дени Лаван, Сигрид Буази, Дэвид Камменос, Жан-Ив Силли, Нэнси Мурильо, Лина-Роуз Джедже, Виктор Ван Дер Верд, Лео Пуле

Описание:

На утро после шумной вечеринки Сэм обнаруживает, что его бывшая, ее новый бойфренд и вообще все вокруг превратились в зомби. И единственное место на весь Париж, где он может чувствовать себя в безопасности, — это квартира, где он проснулся. Что делать? Бежать или остаться? Защищаться или нападать самому?

Качество: BD Remux 1080p
Формат: MKV

Видео: MPEG-4 AVC, 1920x1080, 20.9 Mbit/s, 24.000 fps
Аудио#1: 48 kHz, AC3, 5.1, 384 Kbps | iTunes | RUS |
Аудио#2: 48 kHz, DTS-HD MA, 5.1, 3435 Kbps | Оригинал | ENG |
скриншот  
скриншот  скриншот  скриншот  скриншот  скриншот  

General
Unique ID : 251559825616003327655321032794865616688 (0xBD40A8FC0AFA747BE45367CE4D734730)
Complete name : D:Video111The.Night.Eats.the.World.2018.BDREMUX.1080p.ExKinoRay.mkv
Format : Matroska
Format version : Version 4 / Version 2
File size : 16.1 GiB
Duration : 1 h 33 min
Overall bit rate mode : Variable
Overall bit rate : 24.7 Mb/s
Movie name : The Night Eats the World 2018 from ExKinoRay
Encoded date : UTC 2018-08-17 13:08:02
Writing application : mkvmerge v23.0.0 ('The Bride Said No') 64-bit
Writing library : libebml v1.3.6 + libmatroska v1.4.9

Video
ID : 1
Format : AVC
Format/Info : Advanced Video Codec
Format profile : [email protected]
Format settings : CABAC / 4 Ref Frames
Format settings, CABAC : Yes
Format settings, ReFrames : 4 frames
Format settings, GOP : M=1, N=12
Codec ID : V_MPEG4/ISO/AVC
Duration : 1 h 33 min
Bit rate mode : Variable
Bit rate : 20.9 Mb/s
Maximum bit rate : 34.0 Mb/s
Width : 1 920 pixels
Height : 1 080 pixels
Display aspect ratio : 16:9
Frame rate mode : Constant
Frame rate : 24.000 FPS
Color space : YUV
Chroma subsampling : 4:2:0
Bit depth : 8 bits
Scan type : Progressive
Bits/(Pixel*Frame) : 0.419
Stream size : 13.6 GiB (85%)
Language : English
Default : Yes
Forced : No

Audio #1
ID : 2
Format : AC-3
Format/Info : Audio Coding 3
Commercial name : Dolby Digital
Codec ID : A_AC3
Duration : 1 h 33 min
Bit rate mode : Constant
Bit rate : 384 kb/s
Channel(s) : 6 channels
Channel positions : Front: L C R, Side: L R, LFE
Sampling rate : 48.0 kHz
Frame rate : 31.250 FPS (1536 SPF)
Bit depth : 16 bits
Compression mode : Lossy
Stream size : 257 MiB (2%)
Title : iTunes
Language : Russian
Service kind : Complete Main
Default : Yes
Forced : Yes

Audio #2
ID : 3
Format : DTS
Format/Info : Digital Theater Systems
Format profile : MA / Core
Codec ID : A_DTS
Duration : 1 h 33 min
Bit rate mode : Variable / Constant
Bit rate : 3 435 kb/s / 1 509 kb/s
Channel(s) : 6 channels
Channel positions : Front: L C R, Side: L R, LFE
Sampling rate : 48.0 kHz
Frame rate : 93.750 FPS (512 SPF)
Bit depth : 24 bits
Compression mode : Lossless / Lossy
Stream size : 2.24 GiB (14%)
Title : Original
Language : English
Default : No
Forced : No

Text #1
ID : 4
Format : UTF-8
Codec ID : S_TEXT/UTF8
Codec ID/Info : UTF-8 Plain Text
Duration : 1 h 28 min
Bit rate : 13 b/s
Count of elements : 215
Stream size : 9.01 KiB (0%)
Title : full
Language : Russian
Default : No
Forced : No

Text #2
ID : 5
Format : UTF-8
Codec ID : S_TEXT/UTF8
Codec ID/Info : UTF-8 Plain Text
Duration : 1 h 30 min
Bit rate : 14 b/s
Count of elements : 412
Stream size : 9.63 KiB (0%)
Title : SDH
Language : English
Default : No
Forced : No

Menu
00:00:00.000 : en:Chapter 1
00:08:14.875 : en:Chapter 2
00:16:22.500 : en:Chapter 3
00:24:28.792 : en:Chapter 4
00:33:04.917 : en:Chapter 5
00:43:06.208 : en:Chapter 6
00:51:41.875 : en:Chapter 7
01:01:50.417 : en:Chapter 8
01:10:35.917 : en:Chapter 9
01:20:13.542 : en:Chapter 10
01:30:31.333 : en:Chapter 11




Скачать Париж. Город Zомби через торрент http://img11.lostpic.net/2018/08/17/698cf88a304434b0391b6629fae3620d.jpg Скачать, смотреть онлайн Париж. Город Zомби бесплантно в хорошем качестве Описание: На утро после шумной вечеринки Сэм обнаруживает, что его бывшая, ее новый бойфренд и вообще все вокруг превратились в зомби. И ... 10 10 4
Торрент: Зарегистрирован [2018-08-17 15:21] · скачан: 61 раз
Статус: √ проверено
Размер: 16.12 GB
Как cкачать? Как скачать Париж. Город Zомби через торрент | UTorrent

% Раздел Тема Автор DL S | L
Фильмы [HD 720p, 1080p] (Хороший звук DUB, MVO) [ 7.24 GB ] Париж. Город Zомби / The Night Eats the World / La nuit a dévoré le monde | iTunes | 1080p bober100 Скачать
1 | 0
Фильмы 2018 [DVDrip, WEB-DLRip, HDrip] (DUB, MVO) [ 1.42 GB ] Париж. Город Zомби / The Night Eats the World / La nuit a dévoré le monde | Лицензия | BDRip Twi7ter Скачать
1 | 0
Фильмы 2018 [DVDrip, WEB-DLRip, HDrip] (DUB, MVO) [ 1.55 GB ] Париж. Город Zомби / The Night Eats the World / La nuit a dévoré le monde | iTunes | BDRip-AVC bober100 Скачать
1 | 0
Фильмы 2018 [DVDrip, WEB-DLRip, HDrip] (DUB, MVO) [ 745 MB ] Париж. Город Zомби / The Night Eats the World / La nuit a dévoré le monde | iTunes | BDRip bober100 Скачать
1 | 0
Фильмы с авторской озвучкой [ 1.46 GB ] Париж. Город Zомби / The Night Eats the World / La nuit a dévoré le monde | AVO | BDRip Twi7ter Скачать
1 | 0
T Фильмы с авторской озвучкой [ 7.84 GB ] Париж. Город Zомби / The Night Eats the World / La nuit a dévoré le monde | AVO | 1080p bober100 Скачать
1 | 0

28-11-2019 20:33  


Отключить вcю реклaмy на сайте, в т.ч. и в плеере онлайн просмотра!

    Дорогой пользователь! Огромная просьба, поблагодарите релизера, оцените раздачу и оставьте свои комментарий, если Вы скачали Париж. Город Zомби через торрент бесплатно!!
    Комментировать посты могут только пользователи прошедшие не сложную регистрацию
    Показать сообщения:    


    Париж. Город Zомби через торрент
    Скачать бесплатно Париж. Город Zомби
    Париж. Город Zомби скачать торрент
    Париж. Город Zомби смотреть онлайн
    Cкачать фильм Париж. Город Zомби бесплатно
    Париж. Город Zомби скачать торрент в хорошем качестве
    Париж. Город Zомби смотреть онлайн бесплатно в хорошем качестве
    Вы не можете начинать темы
    Вы не можете отвечать на сообщения
    Вы не можете редактировать свои сообщения
    Вы не можете удалять свои сообщения
    Вы не можете голосовать в опросах
    Вы не можете прикреплять файлы к сообщениям
    Вы можете скачивать файлы
    Париж. Город Zомби / The Night Eats the World / La nuit a dévoré le monde [2018, ужасы, BD Remux 1080p] MVO [iTunes] смотреть онлайн, скачать торрент picoco.icu