новый адрес
Ссылка на приватное зеркало всего за 1$. Внимание количество ограничено!!!

iTunes

1+1

iTunes

мы

WEB-DL

1

iTunes

Чернобыль

iTunes

Ральф против интернета

Лицензия

ПШазам

Лицензия

Оно 2

Лицензия

30
pack

Вам бонус

ВАЖНО

!!Акция!!

Alien_RageХит недели

RePack

Resident Evil 21

ИГРА 18+

pack

RePack

jed

!!Акция!!

Alien_Rage

RePack

fifa19

RePack

Assassins Creed: Odyssey

RePack

NEED FOR SPEED™ PAYBACK

3 сезон

9 сезон

Бесстыжие 9 сезон

Все сериалы

все сериалы на PB.wtf

RePack

FAR CRY 5
Ребята, катастрофически не хватает 1900р. для оплаты серверов за Октябрь (всвязи с блокировками трафик упал в 3 раза), 1-2р., выручайте.
  

Париж. Город Zомби / The Night Eats the World / La nuit a dévoré le monde (Доминик Роше) [2018, ужасы, BDRip-AVC] MVO [iTunes] pb.wtf

Париж. Город Zомби через торрент pb.wtf

Размер: 1.55 GB | Добавлен: 1 год 3 мес. назад | Торрент скачан:381 раз
Скачать  

17-08-2018 15:33 Париж. Город Zомби Скачать торрент  

Париж. Город Zомби / The Night Eats the World / La nuit a dévoré le monde«Ночь пожирает мир»
Год выпуска: 2018
Страна: Франция
Жанр: ужасы
Продолжительность: 01:33:30
Перевод: Профессиональный (многоголосый) | iTunes
Субтитры: Русские, английские

Режиссер: Доминик Роше

rating

В ролях:

Андерс Даниелсен Лье, Голшифте Фарахани, Дени Лаван, Сигрид Буази, Дэвид Камменос, Жан-Ив Силли, Нэнси Мурильо, Лина-Роуз Джедже, Виктор Ван Дер Верд, Лео Пуле

Описание:

На утро после шумной вечеринки Сэм обнаруживает, что его бывшая, ее новый бойфренд и вообще все вокруг превратились в зомби. И единственное место на весь Париж, где он может чувствовать себя в безопасности, — это квартира, где он проснулся. Что делать? Бежать или остаться? Защищаться или нападать самому?

Качество: BDRip-AVC
Формат: MKV

Видео: 1024x552 (1.85:1), 23,976 fps, x264 ~1 545 kbps avg, 0.114 bit/pixel
Аудио#1: 48 kHz, AC3 Dolby Digital, 3/2 (L,C,R,l,r) + LFE ch, ~384.00 kbps avg | RUS (iTunes)
Аудио#2: 48 kHz, AC3 Dolby Digital, 3/2 (L,C,R,l,r) + LFE ch, ~448.00 kbps avg | ENG
скриншот  скриншот  скриншот  скриншот  скриншот  

Общее
Уникальный идентификатор : 162036163497869303624936738142912293922 (0x79E707A9D8F612F280B7840BEFF8AC22)
Полное имя : F:OlLanDGroupThe.Night.Eats.the.World.2018.BDRip(AVC).mkv
Формат : Matroska
Версия формата : Version 4 / Version 2
Размер файла : 1,55 Гбайт
Продолжительность : 1 ч. 33 м.
Общий поток : 2378 Кбит/сек
Название фильма : The.Night.Eats.the.World.2018 #TorpedoUK#
Дата кодирования : UTC 2018-08-17 13:25:47
Программа кодирования : mkvmerge v25.0.0 ('Prog Noir') 64-bit
Библиотека кодирования : libebml v1.3.6 + libmatroska v1.4.9

Видео
Идентификатор : 1
Формат : AVC
Формат/Информация : Advanced Video Codec
Профиль формата : High@L4.1
Параметр CABAC формата : Да
Параметр ReFrames формата : 10 кадров
Идентификатор кодека : V_MPEG4/ISO/AVC
Продолжительность : 1 ч. 33 м.
Битрейт : 1545 Кбит/сек
Ширина : 1024 пикселя
Высота : 552 пикселя
Соотношение сторон : 1,85:1
Режим частоты кадров : Постоянный
Частота кадров : 24,000 кадра/сек
Цветовое пространство : YUV
Субдискретизация насыщенности : 4:2:0
Битовая глубина : 8 бит
Тип развёртки : Прогрессивная
Бит/(Пиксели*Кадры) : 0.114
Размер потока : 1,01 Гбайт (65%)
Библиотека кодирования : x264 core 146 r2538 121396c
Настройки программы : cabac=1 / ref=10 / deblock=1:-3:-3 / analyse=0x3:0x113 / me=umh / subme=11 / psy=1 / psy_rd=0.99:0.04 / mixed_ref=1 / me_range=48 / chroma_me=1 / trellis=2 / 8x8dct=1 / cqm=0 / deadzone=21,11 / fast_pskip=1 / chroma_qp_offset=-3 / threads=6 / lookahead_threads=1 / sliced_threads=0 / nr=0 / decimate=1 / interlaced=0 / bluray_compat=0 / constrained_intra=0 / bframes=10 / b_pyramid=2 / b_adapt=2 / b_bias=0 / direct=3 / weightb=1 / open_gop=0 / weightp=2 / keyint=240 / keyint_min=24 / scenecut=40 / intra_refresh=0 / rc_lookahead=40 / rc=2pass / mbtree=1 / bitrate=1545 / ratetol=1.0 / qcomp=0.60 / qpmin=0 / qpmax=69 / qpstep=4 / cplxblur=20.0 / qblur=0.5 / vbv_maxrate=50000 / vbv_bufsize=62500 / nal_hrd=none / filler=0 / ip_ratio=1.40 / aq=1:1.00
Язык : English
Default : Да
Forced : Нет

Аудио #1
Идентификатор : 2
Формат : AC-3
Формат/Информация : Audio Coding 3
Расширение режима : CM (complete main)
Параметр Endianness формата : Big
Идентификатор кодека : A_AC3
Продолжительность : 1 ч. 33 м.
Вид битрейта : Постоянный
Битрейт : 384 Кбит/сек
Каналы : 6 каналов
Расположение каналов : Front: L C R, Side: L R, LFE
Частота : 48,0 КГц
Частота кадров : 31,250 кадров/сек (1536 spf)
Битовая глубина : 16 бит
Метод сжатия : С потерями
Размер потока : 257 Мбайт (16%)
Заголовок : iTunes
Язык : Russian
Default : Да
Forced : Нет

Аудио #2
Идентификатор : 3
Формат : AC-3
Формат/Информация : Audio Coding 3
Расширение режима : CM (complete main)
Параметр Endianness формата : Big
Идентификатор кодека : A_AC3
Продолжительность : 1 ч. 33 м.
Вид битрейта : Постоянный
Битрейт : 448 Кбит/сек
Каналы : 6 каналов
Расположение каналов : Front: L C R, Side: L R, LFE
Частота : 48,0 КГц
Частота кадров : 31,250 кадров/сек (1536 spf)
Битовая глубина : 16 бит
Метод сжатия : С потерями
Размер потока : 300 Мбайт (19%)
Заголовок : Original
Язык : English
Default : Нет
Forced : Нет

Текст #1
Идентификатор : 4
Формат : UTF-8
Идентификатор кодека : S_TEXT/UTF8
Идентификатор кодека/Информация : UTF-8 Plain Text
Продолжительность : 1 ч. 28 м.
Битрейт : 13 бит/сек
Count of elements : 215
Размер потока : 9,01 Кбайт (0%)
Заголовок : Full
Язык : Russian
Default : Нет
Forced : Нет

Текст #2
Идентификатор : 5
Формат : UTF-8
Идентификатор кодека : S_TEXT/UTF8
Идентификатор кодека/Информация : UTF-8 Plain Text
Продолжительность : 1 ч. 15 м.
Битрейт : 10 бит/сек
Count of elements : 170
Размер потока : 5,76 Кбайт (0%)
Заголовок : Full
Язык : English
Default : Нет
Forced : Нет

Меню
00:00:00.000 : en:Chapter 1
00:08:14.875 : en:Chapter 2
00:16:22.500 : en:Chapter 3
00:24:28.792 : en:Chapter 4
00:33:04.917 : en:Chapter 5
00:43:06.208 : en:Chapter 6
00:51:41.875 : en:Chapter 7
01:01:50.417 : en:Chapter 8
01:10:35.917 : en:Chapter 9
01:20:13.542 : en:Chapter 10
01:30:31.333 : en:Chapter 11

pb.wtf



Скачать Париж. Город Zомби через торрент http://img11.lostpic.net/2018/08/17/e7ce1e28c38893de1bd388ac4da2292e.jpg Скачать фильм Париж. Город Zомби через торрент бесплантно в хорошем качестве Описание: На утро после шумной вечеринки Сэм обнаруживает, что его бывшая, ее новый бойфренд и вообще все вокруг превратились в зомби. И ... 8.7 10 7
Info! Золотая раздача, скачанное не засчитывается.
Торрент: Зарегистрирован [2018-08-17 15:33] · скачан: 381 раз
Статус: √ проверено
Размер: 1.55 GB
Как cкачать? Как скачать Париж. Город Zомби через торрент | qTorrent

% Раздел Тема Автор DL S | L
Фильмы [HD 720p, 1080p] (Хороший звук DUB, MVO) [ 7.24 GB ] Париж. Город Zомби / The Night Eats the World / La nuit a dévoré le monde [2018 BDRip 1080p] MVO bober100 Скачать
1 | 0
Фильмы 2018 [DVDrip, WEB-DLRip, HDrip] (DUB, MVO) [ 1.42 GB ] Париж. Город Zомби / The Night Eats the World / La nuit a dévoré le monde [2018 BDRip] MVO Twi7ter Скачать
1 | 0
Фильмы 2018 [DVDrip, WEB-DLRip, HDrip] (DUB, MVO) [ 745 MB ] Париж. Город Zомби / The Night Eats the World / La nuit a dévoré le monde [2018 BDRip] MVO bober100 Скачать
1 | 0
Фильмы (Blu-ray, BD-Remux, HDDVD) [ 16.12 GB ] Париж. Город Zомби / The Night Eats the World / La nuit a dévoré le monde [2018 BD Remux 1080p] MVO bober100 Скачать
1 | 0
Фильмы с авторской озвучкой [ 1.46 GB ] Париж. Город Zомби / The Night Eats the World / La nuit a dévoré le monde [2018 BDRip] AVO [BadBajo] Twi7ter Скачать
1 | 0
T Фильмы с авторской озвучкой [ 7.84 GB ] Париж. Город Zомби / The Night Eats the World / La nuit a dévoré le monde [2018 BDRip 1080p] AVO [BadBajo] bober100 Скачать
1 | 0

28-11-2019 20:33  

Отключить всю рекламу на сайте

19-08-2018 07:54 Париж. Город Zомби Скачать торрент  

Идея не нова.
Нудный фильмец.
Хорошо что в кинотеатр не пошел.pb.wtf



    Дорогой пользователь! Огромная просьба, поблагодарите релизера, оцените раздачу и оставьте свои комментарий, если Вы скачали Париж. Город Zомби через торрент бесплатно! Внесите свою лепту в развитие PiratBit!
    Комментировать посты могут только пользователи прошедшие не сложную регистрацию
    Показать сообщения:    

    Париж. Город Zомби через торрент
    Скачать бесплатно Париж. Город Zомби
    Париж. Город Zомби скачать торрент
    Париж. Город Zомби смотреть онлайн
    Cкачать фильм Париж. Город Zомби бесплатно
    Париж. Город Zомби скачать торрент в хорошем качестве
    Париж. Город Zомби смотреть онлайн бесплатно в хорошем качестве


    Вы не можете начинать темы
    Вы не можете отвечать на сообщения
    Вы не можете редактировать свои сообщения
    Вы не можете удалять свои сообщения
    Вы не можете голосовать в опросах
    Вы не можете прикреплять файлы к сообщениям
    Вы можете скачивать файлы