Всегда рабочее зеркало без VPN и Proxy просто перед .vidak.icu напиши любое слово или цифру, Пример http://bc6w.vidak.icu

Лицензия

MVO

1 сезон

1

1 сезон

iTunes

1 сезон

13

1 сезон

Deluxe

pack

Рекомендуем

Repack

30

ВАЖНО

RePack

MK11

RePack

jed

RePack

fifa19

RePack

RDR2

RePack

NEED FOR SPEED™ PAYBACK

Кинопоиск HD

6 сезон

 Острые козырьки 6 сезон

Все сериалы

все сериалы на PB.wtf

RePack

FAR CRY 5
  
Magnet ссылка

Роман Израэл, Esq. / Roman J. Israel, Esq. (Дэн Гилрой) [2017, драма, криминал, UHD WEBRip 2160p] [HDR] MVO [Лицензия] pb.wtf

Роман Израэл, Esq. через торрент pb.wtf

Размер: 22.59 GB | Добавлен: 3 года 11 мес. назад | Торрент скачан:15 раз
Смотреть онлайн Роман Израэл, Esq. | Скачать    Ребята, помогите собрать деньги на оплату серверов!!!

17-08-2018 20:14 Роман Израэл, Esq. Скачать торрент  

Роман Израэл, Esq. / Roman J. Israel, Esq.
Год выпуска: 2017
Страна: США
Жанр: драма, криминал
Продолжительность: 02:02:20
Перевод: Профессиональный многоголосый | Лицензия
Субтитры: Русские (Форсированные, полные), украинские, английские (Full, SDH, SDH Colored)

Режиссер: Дэн Гилрой

rating

В ролях:

Дензел Вашингтон, Колин Фаррелл, Кармен Эджого, Линда Граватт, Аманда Уоррен, Хьюго Армстронг, Сэм Гилрой, Тони Плана, Дерон Хортон, Амари Читом

Описание:

История опытного адвоката с твёрдой хваткой, Романа Дж. Израэля, на которого свалилось управление крупной фирмой после того, как его босса настиг сердечный приступ. Оказавшись у власти, Израэль узнаёт о тайных делах своей компании, противоречащих его профессиональным и моральным принципам.

Качество: UHD WEBRip 2160p | HDR
Формат: MKV

Видео: MPEG-4 AVC, 1920x1036, 12.8 Mbit/s, 23.976 fps
Аудио#1: 48 kHz, AC3, 5.1, 640 Kbps | RUS |
Аудио#2: 48 kHz, DTS-HD MA, 6 ch, 3673 Kbps | Оригинал | ENG |
скриншот  скриншот  скриншот  скриншот  скриншот  

General
Unique ID : 97470912212019746203624351592714952135 (0x49543700A508E11E53C6CB8AC0455DC7)
Complete name : C:UsersPublicVideosSample VideosFilmyRoman.J.Israel.Esq.2017.2160p.HDR.WEBRip.MediaClub.mkv
Format : Matroska
Format version : Version 4 / Version 2
File size : 22.6 GiB
Duration : 2 h 2 min
Overall bit rate : 26.4 Mb/s
Encoded date : UTC 2018-08-15 08:55:44
Writing application : mkvmerge v25.0.0 ('Prog Noir') 64-bit
Writing library : libebml v1.3.6 + libmatroska v1.4.9
Cover : Yes
Attachments : cover.jpg

Video
ID : 1
Format : HEVC
Format/Info : High Efficiency Video Coding
Commercial name : HDR10
Format profile : Main [email protected]@Main
Codec ID : V_MPEGH/ISO/HEVC
Duration : 2 h 2 min
Bit rate : 22.1 Mb/s
Width : 3 840 pixels
Height : 2 060 pixels
Display aspect ratio : 1.85:1
Frame rate mode : Constant
Frame rate : 23.976 (24000/1001) FPS
Color space : YUV
Chroma subsampling : 4:2:0 (Type 2)
Bit depth : 10 bits
Bits/(Pixel*Frame) : 0.117
Stream size : 18.9 GiB (84%)
Title : WEBRip.2160p.HDR by Silverok
Writing library : x265 2.8+19-bcdc610cf5f0:[Windows][MSVC 1914][64 bit] 10bit
Encoding settings : cpuid=1111039 / frame-threads=3 / numa-pools=8 / wpp / no-pmode / no-pme / no-psnr / no-ssim / log-level=2 / input-csp=1 / input-res=3840x2060 / interlace=0 / total-frames=175944 / level-idc=0 / high-tier=1 / uhd-bd=0 / ref=3 / no-allow-non-conformance / repeat-headers / annexb / aud / no-hrd / info / hash=0 / no-temporal-layers / no-open-gop / min-keyint=24 / keyint=240 / gop-lookahead=0 / bframes=4 / b-adapt=2 / b-pyramid / bframe-bias=0 / rc-lookahead=20 / lookahead-slices=8 / scenecut=40 / radl=0 / no-intra-refresh / ctu=64 / min-cu-size=8 / no-rect / no-amp / max-tu-size=32 / tu-inter-depth=1 / tu-intra-depth=1 / limit-tu=0 / rdoq-level=0 / dynamic-rd=0.00 / no-ssim-rd / signhide / no-tskip / nr-intra=0 / nr-inter=0 / no-constrained-intra / no-strong-intra-smoothing / max-merge=2 / limit-refs=3 / no-limit-modes / me=1 / subme=2 / merange=57 / temporal-mvp / weightp / no-weightb / no-analyze-src-pics / deblock=3:3 / no-sao / no-sao-non-deblock / rd=3 / no-early-skip / rskip / no-fast-intra / no-tskip-fast / no-cu-lossless / no-b-intra / no-splitrd-skip / rdpenalty=0 / psy-rd=2.00 / psy-rdoq=0.00 / no-rd-refine / no-lossless / cbqpoffs=0 / crqpoffs=0 / rc=crf / crf=16.0 / qcomp=0.70 / qpstep=4 / stats-write=0 / stats-read=0 / ipratio=1.40 / pbratio=1.30 / aq-mode=1 / aq-strength=1.00 / cutree / zone-count=0 / no-strict-cbr / qg-size=32 / no-rc-grain / qpmax=69 / qpmin=0 / no-const-vbv / sar=1 / overscan=0 / videoformat=5 / range=0 / colorprim=9 / transfer=16 / colormatrix=9 / chromaloc=1 / chromaloc-top=2 / chromaloc-bottom=2 / display-window=0 / master-display=G(8500,39850)B(6550,2300)R(35400,14600)WP(15635,16450)L(10000000,50) / max-cll=4000,1000 / min-luma=0 / max-luma=1023 / log2-max-poc-lsb=8 / vui-timing-info / vui-hrd-info / slices=1 / no-opt-qp-pps / no-opt-ref-list-length-pps / no-multi-pass-opt-rps / scenecut-bias=0.05 / no-opt-cu-delta-qp / no-aq-motion / hdr / hdr-opt / no-dhdr10-opt / no-idr-recovery-sei / analysis-reuse-level=5 / scale-factor=0 / refine-intra=0 / refine-inter=0 / refine-mv=0 / no-limit-sao / ctu-info=0 / no-lowpass-dct / refine-mv-type=0 / copy-pic=1 / max-ausize-factor=1.0 / no-dynamic-refine / no-single-sei
Default : Yes
Forced : No
Color range : Limited
Color primaries : BT.2020
Transfer characteristics : PQ
Matrix coefficients : BT.2020 non-constant
Mastering display color primaries : BT.2020
Mastering display luminance : min: 0.0050 cd/m2, max: 1000 cd/m2
Maximum Content Light Level : 4000 cd/m2
Maximum Frame-Average Light Level : 1000 cd/m2

Audio #1
ID : 2
Format : AC-3
Format/Info : Audio Coding 3
Codec ID : A_AC3
Duration : 2 h 2 min
Bit rate mode : Constant
Bit rate : 640 kb/s
Channel(s) : 6 channels
Channel positions : Front: L C R, Side: L R, LFE
Sampling rate : 48.0 kHz
Frame rate : 31.250 FPS (1536 SPF)
Bit depth : 16 bits
Compression mode : Lossy
Stream size : 560 MiB (2%)
Title : Профессиональный многоголосый
Language : Russian
Service kind : Complete Main
Default : Yes
Forced : No

Audio #2
ID : 3
Format : DTS
Format/Info : Digital Theater Systems
Format profile : MA / Core
Codec ID : A_DTS
Duration : 2 h 2 min
Bit rate mode : Variable / Constant
Bit rate : 3 674 kb/s / 1 509 kb/s
Channel(s) : 6 channels
Channel positions : Front: L C R, Side: L R, LFE
Sampling rate : 48.0 kHz
Frame rate : 93.750 FPS (512 SPF)
Bit depth : 24 bits
Compression mode : Lossless / Lossy
Stream size : 3.14 GiB (14%)
Language : English
Default : No
Forced : No

Text #1
ID : 4
Format : UTF-8
Codec ID : S_TEXT/UTF8
Codec ID/Info : UTF-8 Plain Text
Duration : 2 h 1 min
Bit rate : 2 b/s
Count of elements : 38
Stream size : 2.63 KiB (0%)
Title : Forced
Language : Russian
Default : Yes
Forced : Yes

Text #2
ID : 5
Format : UTF-8
Codec ID : S_TEXT/UTF8
Codec ID/Info : UTF-8 Plain Text
Duration : 2 h 1 min
Bit rate : 107 b/s
Count of elements : 1579
Stream size : 95.0 KiB (0%)
Title : Full
Language : Russian
Default : No
Forced : No

Text #3
ID : 6
Format : UTF-8
Codec ID : S_TEXT/UTF8
Codec ID/Info : UTF-8 Plain Text
Duration : 2 h 1 min
Bit rate : 91 b/s
Count of elements : 1578
Stream size : 81.2 KiB (0%)
Title : Full
Language : Ukrainian
Default : No
Forced : No

Text #4
ID : 7
Format : UTF-8
Codec ID : S_TEXT/UTF8
Codec ID/Info : UTF-8 Plain Text
Duration : 1 h 51 min
Bit rate : 70 b/s
Count of elements : 1517
Stream size : 57.8 KiB (0%)
Title : Full
Language : English
Default : No
Forced : No

Text #5
ID : 8
Format : UTF-8
Codec ID : S_TEXT/UTF8
Codec ID/Info : UTF-8 Plain Text
Duration : 1 h 56 min
Bit rate : 75 b/s
Count of elements : 1819
Stream size : 64.4 KiB (0%)
Title : SDH
Language : English
Default : No
Forced : No

Text #6
ID : 9
Format : UTF-8
Codec ID : S_TEXT/UTF8
Codec ID/Info : UTF-8 Plain Text
Duration : 1 h 56 min
Bit rate : 112 b/s
Count of elements : 1818
Stream size : 96.1 KiB (0%)
Title : SDH Colored
Language : English
Default : No
Forced : No

pb.wtf



Скачать Роман Израэл, Esq. через торрент http://img12.lostpic.net/2018/03/25/83c61e968e3fc0aa22a46f2e8fea09fc.jpg Скачать, смотреть онлайн Роман Израэл, Esq. бесплантно в хорошем качестве Описание: История опытного адвоката с твёрдой хваткой, Романа Дж. Израэля, на которого свалилось управление крупной фирмой после того, как ... 10 10 3
Торрент: Зарегистрирован [2018-08-17 20:14] · скачан: 15 раз
Статус: √ проверено
Размер: 22.59 GB
Как cкачать? Как скачать Роман Израэл, Esq. через торрент | UTorrent

% Раздел Тема Автор DL S | L
Фильмы 2017 [DVDrip, WEB-DLRip, HDrip] (DUB, MVO) [ 1.46 GB ] Роман Израэл Esq. / Roman J. Israel Esq. [2017 BDRip] MVO [] Twi7ter Скачать
1 | 0
Фильмы (Blu-ray, BD-Remux, HDDVD) [ 25 GB ] Роман Израэл Esq. / Roman J. Israel Esq. [2017 BD Remux 1080p] MVO [] bober100 Скачать
1 | 0
Фильмы 2017 [DVDrip, WEB-DLRip, HDrip] (DUB, MVO) [ 3.16 GB ] Роман Израэл Esq. / Roman J. Israel Esq. [2017 BDRip-AVC] MVO [] bober100 Скачать
1 | 0
Фильмы [HD 720p, 1080p] (Хороший звук DUB, MVO) [ 5.65 GB ] Роман Израэл Esq. / Roman J. Israel Esq. [2017 BDRip 720p] MVO [] bober100 Скачать
1 | 0
Фильмы [HD 720p, 1080p] (Хороший звук DUB, MVO) [ 12.78 GB ] Роман Израэл Esq. / Roman J. Israel Esq. [2017 BDRip 1080p] MVO [] bober100 Скачать
1 | 0
Фильмы 2017 [DVDrip, WEB-DLRip, HDrip] (DUB, MVO) [ 2.18 GB ] Роман Израэл Esq. / Roman J. Israel Esq. [2017 BDRip] MVO [ BD EUR] bober100 Скачать
1 | 0
Фильмы 2017 [DVDrip, WEB-DLRip, HDrip] (DUB, MVO) [ 1.46 GB ] Роман Израэл Esq. / Roman J. Israel Esq. [2017 BDRip] MVO [ BD EUR] bober100 Скачать
1 | 0

28-11-2019 20:33  

Отключить вcю реклaмy на сайте

    Дорогой пользователь! Огромная просьба, поблагодарите релизера, оцените раздачу и оставьте свои комментарий, если Вы скачали Роман Израэл, Esq. через торрент бесплатно!
    Комментировать посты могут только пользователи прошедшие не сложную регистрацию
    Показать сообщения:    

    Роман Израэл, Esq. через торрент
    Скачать бесплатно Роман Израэл, Esq.
    Роман Израэл, Esq. скачать торрент
    Роман Израэл, Esq. смотреть онлайн
    Cкачать фильм Роман Израэл, Esq. бесплатно
    Роман Израэл, Esq. скачать торрент в хорошем качестве
    Роман Израэл, Esq. смотреть онлайн бесплатно в хорошем качестве


    Вы не можете начинать темы
    Вы не можете отвечать на сообщения
    Вы не можете редактировать свои сообщения
    Вы не можете удалять свои сообщения
    Вы не можете голосовать в опросах
    Вы не можете прикреплять файлы к сообщениям
    Вы можете скачивать файлы