Ссылка на приватное зеркало нашего сайта всего за 1$. Внимание количество ограничено!!!

2 сезон

iTunes

1 сезон

1

2 сезон

2 сезон

iTunes

1 сезон

RePack

30

Ultimate

ВАЖНО

ИГРА 18+

pack

RePack

MK11
pack

Забери бонус

RePack

jed

!!Акция!!

Alien_Rage

RePack

fifa19

RePack

Assassins Creed: Odyssey

RePack

NEED FOR SPEED™ PAYBACK

4 сезон

9 сезон

Бесстыжие 9 сезон

Все сериалы

все сериалы на PB.wtf

RePack

FAR CRY 5
  

Dee Snider - For The Love Of Metal - 2018/ FLAC/ image +.cue/ lossless/ Heavy Metal pb.wtf

Dee Snider - For The Love Of Metal - 2018 через торрент pb.wtf

Размер: 366 MB | Добавлен: 2 года 3 мес. назад | Торрент скачан:18 раз
Скачать  

18-08-2018 09:52 Dee Snider - For The Love Of Metal - 2018 Скачать торрент  


Dee Snider - For The Love Of Metal


Год издания: 2018
Страна: USA
Жанр: Heavy Metal
Продолжительность: 00:41:27
Лейбл издания: Napalm Records Handels Gmbh
Страна-выпуска диска: Germany
Номер по каталогу: NPR 797 JC
Формат: FLAC
Битрейт аудио: Lossless
Тип рипа: image +.cue
Наличие сканов в содержимом раздачи: да


01. Lies Are A Business (2:46)
02. Tomorrowґs No Concern (3:20)
03. I Am The Hurricane (3:26)
04. American Made (3:34)
05. Roll Over You (2:55)
06. Iґm Ready (3:18)
07. Running Mazes (2:58)
08. Mask (3:49)
09. Become The Storm (4:10)
10. The Hardest Way (3:48)
11. Dead Hearts (Love Thy Enemy) (3:53)
12. For The Love Of Metal (3:29)

Код:

Exact Audio Copy V1.3 from 2. September 2016

Отчёт EAC об извлечении, выполненном 31. июля 2018, 20:25

Dee Snider / For The Love Of Metal

Дисковод: HL-DT-STDVDRAM GU40N   Adapter: 0  ID: 1

Режим чтения                 : Достоверность
Использование точного потока : Да
Отключение кэша аудио        : Да
Использование указателей C2  : Нет

Коррекция смещения при чтении                     : 103
Способность читать области Lead-in и Lead-out     : Нет
Заполнение пропущенных сэмплов тишиной            : Да
Удаление блоков с тишиной в начале и конце        : Нет
При вычислениях CRC использовались нулевые сэмплы : Да
Интерфейс                                         : Установленный внешний ASPI-интерфейс

Выходной формат          : Пользовательский кодировщик
Выбранный битрейт        : 1024 kBit/s
Качество                 : Высокий
Добавление ID3-тега      : Нет
Утилита сжатия           : C:\Program Files (x86)\Exact Audio Copy\Flac\flac.exe
Дополнительные параметры :  -V -8 -T "Date=%year%" -T "Genre=%genre%" %source%

TOC извлечённого CD

     Трек |   Старт  | Длительность | Начальный сектор | Конечный сектор
    ---------------------------------------------------------------------
       1  |  0:00.00 |    2:46.17   |           0      |      12466
       2  |  2:46.17 |    3:19.44   |       12467      |      27435
       3  |  6:05.61 |    3:25.73   |       27436      |      42883
       4  |  9:31.59 |    3:34.26   |       42884      |      58959
       5  | 13:06.10 |    2:55.11   |       58960      |      72095
       6  | 16:01.21 |    3:18.36   |       72096      |      86981
       7  | 19:19.57 |    2:57.66   |       86982      |     100322
       8  | 22:17.48 |    3:48.39   |      100323      |     117461
       9  | 26:06.12 |    4:10.30   |      117462      |     136241
      10  | 30:16.42 |    3:47.74   |      136242      |     153340
      11  | 34:04.41 |    3:53.34   |      153341      |     170849
      12  | 37:58.00 |    3:28.63   |      170850      |     186512

Характеристики диапазона извлечения и сообщения об ошибках

Выбранный диапазон

     Имя файла C:\Users\workutagin\Desktop\DEE SNIDER - FOR THE LOVE OF METAL 2018\Dee Snider - For The Love Of Metal.wav

     Пиковый уровень 99.2 %
     Скорость извлечения 1.9 X
     Качество диапазона 100.0 %
     CRC теста 4C995409
     CRC копии 4C995409
     Копирование... OK

Ошибок не произошло

AccurateRip: сводка

Трек  1  отсутствует в базе данных
Трек  2  отсутствует в базе данных
Трек  3  отсутствует в базе данных
Трек  4  отсутствует в базе данных
Трек  5  отсутствует в базе данных
Трек  6  отсутствует в базе данных
Трек  7  отсутствует в базе данных
Трек  8  отсутствует в базе данных
Трек  9  отсутствует в базе данных
Трек 10  отсутствует в базе данных
Трек 11  отсутствует в базе данных
Трек 12  отсутствует в базе данных

Ни одного трека нет в базе AccurateRip

Конец отчёта

Код:

REM GENRE "Heavy Metal"
REM DATE 2018
REM DISCID B009B60C
REM COMMENT "ExactAudioCopy v1.3"
PERFORMER "Dee Snider"
TITLE "For The Love Of Metal"
REM COMPOSER ""
FILE "Dee Snider - For The Love Of Metal.flac" WAVE
  TRACK 01 AUDIO
    TITLE "Lies Are A Business"
    PERFORMER "Dee Snider"
    REM COMPOSER ""
    INDEX 01 00:00:00
  TRACK 02 AUDIO
    TITLE "Tomorrowґs No Concern"
    PERFORMER "Dee Snider"
    REM COMPOSER ""
    INDEX 01 02:46:17
  TRACK 03 AUDIO
    TITLE "I Am The Hurricane"
    PERFORMER "Dee Snider"
    REM COMPOSER ""
    INDEX 01 06:05:61
  TRACK 04 AUDIO
    TITLE "American Made"
    PERFORMER "Dee Snider"
    REM COMPOSER ""
    INDEX 01 09:31:59
  TRACK 05 AUDIO
    TITLE "Roll Over You"
    PERFORMER "Dee Snider"
    REM COMPOSER ""
    INDEX 01 13:06:10
  TRACK 06 AUDIO
    TITLE "Iґm Ready"
    PERFORMER "Dee Snider"
    REM COMPOSER ""
    INDEX 01 16:01:21
  TRACK 07 AUDIO
    TITLE "Running Mazes"
    PERFORMER "Dee Snider"
    REM COMPOSER ""
    INDEX 01 19:19:57
  TRACK 08 AUDIO
    TITLE "Mask"
    PERFORMER "Dee Snider"
    REM COMPOSER ""
    INDEX 01 22:17:48
  TRACK 09 AUDIO
    TITLE "Become The Storm"
    PERFORMER "Dee Snider"
    REM COMPOSER ""
    INDEX 01 26:06:12
  TRACK 10 AUDIO
    TITLE "The Hardest Way"
    PERFORMER "Dee Snider"
    REM COMPOSER ""
    INDEX 01 30:16:42
  TRACK 11 AUDIO
    TITLE "Dead Hearts (Love Thy Enemy)"
    PERFORMER "Dee Snider"
    REM COMPOSER ""
    INDEX 01 34:04:41
  TRACK 12 AUDIO
    TITLE "For The Love Of Metal"
    PERFORMER "Dee Snider"
    REM COMPOSER ""
    INDEX 01 37:58:00




pb.wtf



Скачать Dee Snider - For The Love Of Metal - 2018 через торрент http://i101.fastpic.ru/big/2018/0818/ee/fad0c55b862700be1359f33bb65511ee.png Скачать фильм Dee Snider - For The Love Of Metal - 2018через торрент бесплантно в хорошем качестве Трэклист Lies Are A Business (2:46) Tomorrowґs No Concern (3:20) I Am The Hurricane (3:26) American Made (3:34) ... 5 10 1
Торрент: Зарегистрирован [2018-08-18 09:52] · скачан: 18 раз
Статус: √ проверено
Размер: 366 MB
Как cкачать? Как скачать Dee Snider - For The Love Of Metal - 2018 через торрент | qTorrent

28-11-2019 20:33  

Отключить всю рекламу на сайте

    Дорогой пользователь! Огромная просьба, поблагодарите релизера, оцените раздачу и оставьте свои комментарий, если Вы скачали Dee Snider - For The Love Of Metal - 2018 через торрент бесплатно! Внесите свою лепту в развитие PiratBit!
    Комментировать посты могут только пользователи прошедшие не сложную регистрацию
    Показать сообщения:    

    Dee Snider - For The Love Of Metal - 2018 через торрент
    Скачать бесплатно Dee Snider - For The Love Of Metal - 2018
    Dee Snider - For The Love Of Metal - 2018 скачать торрент
    Dee Snider - For The Love Of Metal - 2018 смотреть онлайн
    Cкачать фильм Dee Snider - For The Love Of Metal - 2018 бесплатно
    Dee Snider - For The Love Of Metal - 2018 скачать торрент в хорошем качестве
    Dee Snider - For The Love Of Metal - 2018 смотреть онлайн бесплатно в хорошем качестве


    Вы не можете начинать темы
    Вы не можете отвечать на сообщения
    Вы не можете редактировать свои сообщения
    Вы не можете удалять свои сообщения
    Вы не можете голосовать в опросах
    Вы не можете прикреплять файлы к сообщениям
    Вы можете скачивать файлы