Ссылка на приватное зеркало всего за 1$. Внимание количество ограничено!!!

iTunes

iTunes

iTunes

1

iTunes

iTunes

iTunes

WEBRip

iTunes

30
pack

$ от Little Big

ВАЖНО

!!Акция!!

Alien_RageХит недели

RePack

Resident Evil 21

ИГРА 18+

pack

RePack

jed

!!Акция!!

Alien_Rage

RePack

fifa19

RePack

Assassins Creed: Odyssey

RePack

NEED FOR SPEED™ PAYBACK

4 сезон

9 сезон

Бесстыжие 9 сезон

Все сериалы

все сериалы на PB.wtf

RePack

FAR CRY 5
  

Кодекс сводника / The Matchmaker's Playbook (Тоска Маск) [2018 г., Мелодрама, WEB-DLRip, Любительский (многоголосый)] [Alfaproject] pb.wtf

Кодекс сводника через торрент pb.wtf

Размер: 1.37 GB | Добавлен: 1 год 11 мес. назад | Торрент скачан:47 раз
Скачать  

18-08-2018 13:45 Кодекс сводника Скачать торрент  

Кодекс сводника / The Matchmaker's Playbook
Год выпуска: 2018
Страна: США
Жанр: Мелодрама
Продолжительность: 01:33:13
Перевод: Любительский (многоголосый) | Alfaproject
Субтитры: Отсутствуют

Режиссер: Тоска Маск

rating

В ролях: Мадлен Вагер, Бэйли Джейн Кормэн, Тайлер Джонсон, Карсон Найсели, Ник Бейтман, Жюстен Алперт, Harrison Grant, Трей Такер, Кристина ДеРоса, Кэйтлин Карвер

Описание: В мире миллионы одиноких людей пытаются найти свою вторую половинку. Молодой красавчик Ян пытается хоть как-то исправить сложившуюся ситуацию. Он открыл собственную компанию, которая помогает одиноким девушкам заполучить парня своей мечты. Однако очередная клиентка привносит в его деятельность значительные проблемы...

Качество: WEB-DLRip
Формат: AVI
Видео кодек: XviD
Аудио кодек: AC3
Видео: XviD, 720x400 , 23.9fps, 1706 Kbps
Аудио#1: AC3 , 2 ch , 48 kHz , 384 kbps
скриншот   скриншот   скриншот   скриншот  

Общее
Полное имя : D:The Matchmakers Playbook.2018.Pa.WEB-DLRip.14OOMB_KOSHARA.avi
Формат : AVI
Формат/Информация : Audio Video Interleave
Размер файла : 1,37 Гбайт
Продолжительность : 1 ч. 33 м.
Общий поток : 2099 Кбит/сек
Программа кодирования : VirtualDubMod 1.5.10.2 (build 2540/release)
Библиотека кодирования : VirtualDubMod build 2540/release

Видео
Идентификатор : 0
Формат : MPEG-4 Visual
Профиль формата : Advanced Simple@L5
Параметр BVOP формата : 2
Параметр QPel формата : Нет
Параметр GMC формата : Без точки перехода
Параметр матрицы формата : Выборочная
Идентификатор кодека : XVID
Идентификатор кодека/Подсказка : XviD
Продолжительность : 1 ч. 33 м.
Битрейт : 1706 Кбит/сек
Ширина : 720 пикселей
Высота : 400 пикселей
Соотношение сторон : 16:9
Частота кадров : 23,976 кадра/сек
Цветовое пространство : YUV
Субдискретизация насыщенности : 4:2:0
Битовая глубина : 8 бит
Тип развёртки : Прогрессивная
Метод сжатия : С потерями
Бит/(Пиксели*Кадры) : 0.247
Размер потока : 1,11 Гбайт (81%)
Библиотека кодирования : XviD 1.2.1 (UTC 2008-12-04)

Аудио
Идентификатор : 1
Формат : AC-3
Формат/Информация : Audio Coding 3
Расширение режима : CM (complete main)
Параметр Endianness формата : Big
Идентификатор кодека : 2000
Продолжительность : 1 ч. 33 м.
Вид битрейта : Постоянный
Битрейт : 384 Кбит/сек
Каналы : 2 канала
Расположение каналов : Front: L R
Частота : 48,0 КГц
Битовая глубина : 16 бит
Метод сжатия : С потерями
Размер потока : 256 Мбайт (18%)
Выравнивание : Разделение по промежуткам
Продолжительность промежутка : 42 мс. (1,00 видеокадр)
Время предзагрузки промежутка : 500 мс.

pb.wtf



Скачать Кодекс сводника через торрент http://pic1.kartinco.top/images/11/lkdmx.jpg Скачать фильм Кодекс сводника через торрент бесплантно в хорошем качестве Описание: В мире миллионы одиноких людей пытаются найти свою вторую половинку. Молодой красавчик Ян пытается хоть как-то исправить ... 7 10 3
Торрент: Зарегистрирован [2018-08-18 13:45] · скачан: 47 раз
Статус: T временная
Размер: 1.37 GB
Как cкачать? Как скачать Кодекс сводника через торрент | qTorrent

28-11-2019 20:33  

Отключить всю рекламу на сайте

    Дорогой пользователь! Огромная просьба, поблагодарите релизера, оцените раздачу и оставьте свои комментарий, если Вы скачали Кодекс сводника через торрент бесплатно! Внесите свою лепту в развитие PiratBit!
    Комментировать посты могут только пользователи прошедшие не сложную регистрацию
    Показать сообщения:    

    Кодекс сводника через торрент
    Скачать бесплатно Кодекс сводника
    Кодекс сводника скачать торрент
    Кодекс сводника смотреть онлайн
    Cкачать фильм Кодекс сводника бесплатно
    Кодекс сводника скачать торрент в хорошем качестве
    Кодекс сводника смотреть онлайн бесплатно в хорошем качестве


    Вы не можете начинать темы
    Вы не можете отвечать на сообщения
    Вы не можете редактировать свои сообщения
    Вы не можете удалять свои сообщения
    Вы не можете голосовать в опросах
    Вы не можете прикреплять файлы к сообщениям
    Вы можете скачивать файлы