Ссылка на приватное зеркало нашего сайта всего за 1$. Внимание количество ограничено!!!

2 сезон

iTunes

1 сезон

1

2 сезон

2 сезон

iTunes

1 сезон

RePack

30

Ultimate

ВАЖНО

ИГРА 18+

pack

RePack

MK11
pack

Забери бонус

RePack

jed

!!Акция!!

Alien_Rage

RePack

fifa19

RePack

Assassins Creed: Odyssey

RePack

NEED FOR SPEED™ PAYBACK

4 сезон

9 сезон

Бесстыжие 9 сезон

Все сериалы

все сериалы на PB.wtf

RePack

FAR CRY 5
  

Sonata Arctica - The Harvests 2007-2017 (2CD) - 2018/ FLAC/ image +.cue/ lossless/ Progressive, Power Metal pb.wtf

Sonata Arctica - The Harvests 2007-2017 через торрент pb.wtf

Размер: 960 MB | Добавлен: 2 года 3 мес. назад | Торрент скачан:12 раз
Скачать  

18-08-2018 15:51 Sonata Arctica - The Harvests 2007-2017 Скачать торрент  


Sonata Arctica - The Harvests 2007-2017 (2CD)


Год издания: 2018
Страна: Finland
Жанр: Progressive, Power Metal
Продолжительность: 02:03:33
Лейбл издания: AVALON
Страна-выпуска диска: Japan
Номер по каталогу: MICP-90110
Формат: FLAC
Битрейт аудио: Lossless
Тип рипа: image +.cue
Наличие сканов в содержимом раздачи: да


01. The Wolves Die Young (4:12)
02. Paid in Full (4:24)
03. Life (5:07)
04. I Have a Right (4:48)
05. Flag in the Ground (4:09)
06. Till Death's Done Us Apart (6:06)
07. Caleb (6:17)
08. Fullmoon (2014 version) (5:12)
09. Cinderblox (4:04)
10. Cloud Factory (4:17)
11. The Last Amazing Grays (5:40)
12. Fairytale (6:39)
13. Love (3:47)
14. Losing My Insanity (4:03)
15. In Black and White (5:04)

01. To Create a Warlike Feel (5:04)
02. In the Dark (5:22)
03. Flag in the Ground (Video edit) (4:09)
04. Shitload of Money (Radio edit) (3:55)
05. I Have a Right (Radio edit) (3:55)
06. Tonight I Dance Alone (3:27)
07. The Wolves Die Young (Radio edit) (3:51)
08. Cloud Factory (Radio edit) (3:58)
09. Run to You (Bryan Adams cover) (3:35)
10. Christmas Spirits (7:07)
11. In the Dark (Symphonic version) (5:22)

Код:

Exact Audio Copy V1.1 from 23. June 2015

EAC extraction logfile from 10. August 2018, 23:21

Sonata Arctica / The Harvests 2007-2017 CD1 (MICP-90110)

Used drive  : TSSTcorpDVDWBD SH-B123L   Adapter: 0  ID: 4

Read mode               : Secure
Utilize accurate stream : Yes
Defeat audio cache      : Yes
Make use of C2 pointers : No

Read offset correction                      : 6
Overread into Lead-In and Lead-Out          : No
Fill up missing offset samples with silence : Yes
Delete leading and trailing silent blocks   : No
Null samples used in CRC calculations       : Yes
Used interface                              : Installed external ASPI interface

Used output format              : User Defined Encoder
Selected bitrate                : 768 kBit/s
Quality                         : High
Add ID3 tag                     : No
Command line compressor         : C:\Program Files (x86)\Exact Audio Copy\FLAC\FLAC.EXE
Additional command line options : -6 -V -T "ARTIST=%artist%" -T "TITLE=%title%" -T "ALBUM=%albumtitle%" -T "DATE=%year%" -T "TRACKNUMBER=%tracknr%" -T "GENRE=%genre%" -T "COMMENT=%comment%" -T "BAND=%albuminterpret%" -T "ALBUMARTIST=%albuminterpret%" -T "COMPOSER=%composer%" %haslyrics%--tag-from-file=LYRICS="%lyricsfile%"%haslyrics% -T "DISCNUMBER=%cdnumber%" -T "TOTALDISCS=%totalcds%" -T "TOTALTRACKS=%numtracks%" %hascover%--picture="%coverfile%"%hascover% %source% -o %dest%

TOC of the extracted CD

     Track |   Start  |  Length  | Start sector | End sector
    ---------------------------------------------------------
        1  |  0:00.00 |  4:11.67 |         0    |    18891
        2  |  4:11.67 |  4:24.30 |     18892    |    38721
        3  |  8:36.22 |  5:06.67 |     38722    |    61738
        4  | 13:43.14 |  4:47.72 |     61739    |    83335
        5  | 18:31.11 |  4:08.63 |     83336    |   101998
        6  | 22:39.74 |  6:06.07 |    101999    |   129455
        7  | 28:46.06 |  6:16.47 |    129456    |   157702
        8  | 35:02.53 |  5:12.04 |    157703    |   181106
        9  | 40:14.57 |  4:03.46 |    181107    |   199377
       10  | 44:18.28 |  4:16.51 |    199378    |   218628
       11  | 48:35.04 |  5:40.20 |    218629    |   244148
       12  | 54:15.24 |  6:38.56 |    244149    |   274054
       13  | 60:54.05 |  3:46.56 |    274055    |   291060
       14  | 64:40.61 |  4:03.00 |    291061    |   309285
       15  | 68:43.61 |  5:03.62 |    309286    |   332072

Range status and errors

Selected range

     Filename E:\MUSIC\Sonata Arctica - The Harvests 2007-2017 CD1 (MICP-90110).wav

     Peak level 100.0 %
     Extraction speed 4.0 X
     Range quality 100.0 %
     Test CRC 9C5F305D
     Copy CRC 9C5F305D
     Copy OK

No errors occurred

AccurateRip summary

Track  1  not present in database
Track  2  not present in database
Track  3  not present in database
Track  4  not present in database
Track  5  not present in database
Track  6  not present in database
Track  7  not present in database
Track  8  not present in database
Track  9  not present in database
Track 10  not present in database
Track 11  not present in database
Track 12  not present in database
Track 13  not present in database
Track 14  not present in database
Track 15  not present in database

None of the tracks are present in the AccurateRip database

End of status report

Код:

Exact Audio Copy V1.1 from 23. June 2015

EAC extraction logfile from 11. August 2018, 0:00

Sonata Arctica / The Harvests 2007-2017 CD2 (MICP-90110)

Used drive  : TSSTcorpDVDWBD SH-B123L   Adapter: 0  ID: 4

Read mode               : Secure
Utilize accurate stream : Yes
Defeat audio cache      : Yes
Make use of C2 pointers : No

Read offset correction                      : 6
Overread into Lead-In and Lead-Out          : No
Fill up missing offset samples with silence : Yes
Delete leading and trailing silent blocks   : No
Null samples used in CRC calculations       : Yes
Used interface                              : Installed external ASPI interface

Used output format              : User Defined Encoder
Selected bitrate                : 768 kBit/s
Quality                         : High
Add ID3 tag                     : No
Command line compressor         : C:\Program Files (x86)\Exact Audio Copy\FLAC\FLAC.EXE
Additional command line options : -6 -V -T "ARTIST=%artist%" -T "TITLE=%title%" -T "ALBUM=%albumtitle%" -T "DATE=%year%" -T "TRACKNUMBER=%tracknr%" -T "GENRE=%genre%" -T "COMMENT=%comment%" -T "BAND=%albuminterpret%" -T "ALBUMARTIST=%albuminterpret%" -T "COMPOSER=%composer%" %haslyrics%--tag-from-file=LYRICS="%lyricsfile%"%haslyrics% -T "DISCNUMBER=%cdnumber%" -T "TOTALDISCS=%totalcds%" -T "TOTALTRACKS=%numtracks%" %hascover%--picture="%coverfile%"%hascover% %source% -o %dest%

TOC of the extracted CD

     Track |   Start  |  Length  | Start sector | End sector
    ---------------------------------------------------------
        1  |  0:00.00 |  5:03.68 |         0    |    22792
        2  |  5:03.68 |  5:21.55 |     22793    |    46922
        3  | 10:25.48 |  4:08.69 |     46923    |    65591
        4  | 14:34.42 |  3:55.20 |     65592    |    83236
        5  | 18:29.62 |  3:54.60 |     83237    |   100846
        6  | 22:24.47 |  3:27.02 |    100847    |   116373
        7  | 25:51.49 |  3:51.29 |    116374    |   133727
        8  | 29:43.03 |  3:57.68 |    133728    |   151570
        9  | 33:40.71 |  3:34.44 |    151571    |   167664
       10  | 37:15.40 |  7:06.68 |    167665    |   199682
       11  | 44:22.33 |  5:22.35 |    199683    |   223867

Range status and errors

Selected range

     Filename E:\MUSIC\Sonata Arctica - The Harvests 2007-2017 CD2 (MICP-90110).wav

     Peak level 100.0 %
     Extraction speed 3.2 X
     Range quality 100.0 %
     Test CRC FF6ABDD2
     Copy CRC FF6ABDD2
     Copy OK

No errors occurred

AccurateRip summary

Track  1  not present in database
Track  2  not present in database
Track  3  not present in database
Track  4  not present in database
Track  5  not present in database
Track  6  not present in database
Track  7  not present in database
Track  8  not present in database
Track  9  not present in database
Track 10  not present in database
Track 11  not present in database

None of the tracks are present in the AccurateRip database

End of status report

Код:

REM GENRE "Progressive metal"
REM DATE 2018
REM DISCID C7114B0F
REM COMMENT "ExactAudioCopy v1.1"
PERFORMER "Sonata Arctica"
TITLE "The Harvests 2007-2017 CD1 (MICP-90110)"
FILE "Sonata Arctica - The Harvests 2007-2017 CD1 (MICP-90110).flac" WAVE
  TRACK 01 AUDIO
    TITLE "The Wolves Die Young"
    PERFORMER "Sonata Arctica"
    INDEX 01 00:00:00
  TRACK 02 AUDIO
    TITLE "Paid in Full"
    PERFORMER "Sonata Arctica"
    INDEX 01 04:11:67
  TRACK 03 AUDIO
    TITLE "Life"
    PERFORMER "Sonata Arctica"
    INDEX 01 08:36:22
  TRACK 04 AUDIO
    TITLE "I Have a Right"
    PERFORMER "Sonata Arctica"
    INDEX 01 13:43:14
  TRACK 05 AUDIO
    TITLE "Flag in the Ground"
    PERFORMER "Sonata Arctica"
    INDEX 01 18:31:11
  TRACK 06 AUDIO
    TITLE "Till Death's Done Us Apart"
    PERFORMER "Sonata Arctica"
    INDEX 01 22:39:74
  TRACK 07 AUDIO
    TITLE "Caleb"
    PERFORMER "Sonata Arctica"
    INDEX 01 28:46:06
  TRACK 08 AUDIO
    TITLE "Fullmoon (2014 version)"
    PERFORMER "Sonata Arctica"
    INDEX 01 35:02:53
  TRACK 09 AUDIO
    TITLE "Cinderblox"
    PERFORMER "Sonata Arctica"
    INDEX 01 40:14:57
  TRACK 10 AUDIO
    TITLE "Cloud Factory"
    PERFORMER "Sonata Arctica"
    INDEX 01 44:18:28
  TRACK 11 AUDIO
    TITLE "The Last Amazing Grays"
    PERFORMER "Sonata Arctica"
    INDEX 01 48:35:04
  TRACK 12 AUDIO
    TITLE "Fairytale"
    PERFORMER "Sonata Arctica"
    INDEX 01 54:15:24
  TRACK 13 AUDIO
    TITLE "Love"
    PERFORMER "Sonata Arctica"
    INDEX 01 60:54:05
  TRACK 14 AUDIO
    TITLE "Losing My Insanity"
    PERFORMER "Sonata Arctica"
    INDEX 01 64:40:61
  TRACK 15 AUDIO
    TITLE "In Black and White"
    PERFORMER "Sonata Arctica"
    INDEX 01 68:43:61

Код:

REM GENRE "Progressive metal"
REM DATE 2018
REM DISCID 890BA80B
REM COMMENT "ExactAudioCopy v1.1"
PERFORMER "Sonata Arctica"
TITLE "The Harvests 2007-2017 CD2 (MICP-90110)"
FILE "Sonata Arctica - The Harvests 2007-2017 CD2 (MICP-90110).flac" WAVE
  TRACK 01 AUDIO
    TITLE "To Create a Warlike Feel"
    PERFORMER "Sonata Arctica"
    INDEX 01 00:00:00
  TRACK 02 AUDIO
    TITLE "In the Dark"
    PERFORMER "Sonata Arctica"
    INDEX 01 05:03:68
  TRACK 03 AUDIO
    TITLE "Flag in the Ground (Video edit)"
    PERFORMER "Sonata Arctica"
    INDEX 01 10:25:48
  TRACK 04 AUDIO
    TITLE "Shitload of Money (Radio edit)"
    PERFORMER "Sonata Arctica"
    INDEX 01 14:34:42
  TRACK 05 AUDIO
    TITLE "I Have a Right (Radio edit)"
    PERFORMER "Sonata Arctica"
    INDEX 01 18:29:62
  TRACK 06 AUDIO
    TITLE "Tonight I Dance Alone"
    PERFORMER "Sonata Arctica"
    INDEX 01 22:24:47
  TRACK 07 AUDIO
    TITLE "The Wolves Die Young (Radio edit) "
    PERFORMER "Sonata Arctica"
    INDEX 01 25:51:49
  TRACK 08 AUDIO
    TITLE "Cloud Factory (Radio edit) "
    PERFORMER "Sonata Arctica"
    INDEX 01 29:43:03
  TRACK 09 AUDIO
    TITLE "Run to You (Bryan Adams cover) "
    PERFORMER "Sonata Arctica"
    INDEX 01 33:40:71
  TRACK 10 AUDIO
    TITLE "Christmas Spirits"
    PERFORMER "Sonata Arctica"
    INDEX 01 37:15:40
  TRACK 11 AUDIO
    TITLE "In the Dark (Symphonic version)"
    PERFORMER "Sonata Arctica"
    INDEX 01 44:22:33




pb.wtf



Скачать Sonata Arctica - The Harvests 2007-2017 через торрент http://i101.fastpic.ru/big/2018/0818/d0/a86f36b11f82539c4da3e6b40ec76cd0.png Скачать фильм Sonata Arctica - The Harvests 2007-2017 через торрент бесплантно в хорошем качестве ... 5 10 1
Торрент: Зарегистрирован [2018-08-18 15:51] · скачан: 12 раз
Статус: √ проверено
Размер: 960 MB
Как cкачать? Как скачать Sonata Arctica - The Harvests 2007-2017 через торрент | qTorrent

28-11-2019 20:33  

Отключить всю рекламу на сайте

    Дорогой пользователь! Огромная просьба, поблагодарите релизера, оцените раздачу и оставьте свои комментарий, если Вы скачали Sonata Arctica - The Harvests 2007-2017 через торрент бесплатно! Внесите свою лепту в развитие PiratBit!
    Комментировать посты могут только пользователи прошедшие не сложную регистрацию
    Показать сообщения:    

    Sonata Arctica - The Harvests 2007-2017 через торрент
    Скачать бесплатно Sonata Arctica - The Harvests 2007-2017
    Sonata Arctica - The Harvests 2007-2017 скачать торрент
    Sonata Arctica - The Harvests 2007-2017 смотреть онлайн
    Cкачать фильм Sonata Arctica - The Harvests 2007-2017 бесплатно
    Sonata Arctica - The Harvests 2007-2017 скачать торрент в хорошем качестве
    Sonata Arctica - The Harvests 2007-2017 смотреть онлайн бесплатно в хорошем качестве


    Вы не можете начинать темы
    Вы не можете отвечать на сообщения
    Вы не можете редактировать свои сообщения
    Вы не можете удалять свои сообщения
    Вы не можете голосовать в опросах
    Вы не можете прикреплять файлы к сообщениям
    Вы можете скачивать файлы