Ссылка на приватное зеркало всего за 1$. Внимание количество ограничено!!!

OK

1+1

iTunes

мы

OK

1

WEB-DLRip

Джокер

Пифагор

Ведьмак / The Witcher сериал

Лицензия

ПШазам

ОК

Оно 2

iTunes

30
pack

Вам бонус

ВАЖНО

!!Акция!!

Alien_RageХит недели

RePack

Resident Evil 21

ИГРА 18+

pack

RePack

jed

!!Акция!!

Alien_Rage

RePack

fifa19

RePack

Assassins Creed: Odyssey

RePack

NEED FOR SPEED™ PAYBACK

4 сезон

9 сезон

Бесстыжие 9 сезон

Все сериалы

все сериалы на PB.wtf

RePack

FAR CRY 5
  

Кунг-фу путешественник 2 / Кунг Фу киборг 3: Северный стиль / Gong fu ji qi xia 2 / Kung Fu Traveler 2 (Чжан Сяньфэн) [2017, боевик, фантастика, WEB-DL 720p] MVO [КОЛОБОК] pb.wtf

Кунг-фу путешественник 2 через торрент pb.wtf

Размер: 3.55 GB | Добавлен: 1 год 5 мес. назад | Торрент скачан:98 раз
Скачать  

18-08-2018 16:45 Кунг-фу путешественник 2 Скачать торрент  

Кунг-фу путешественник 2 / Кунг Фу киборг 3: Северный стиль / Gong fu ji qi xia 2 / Kung Fu Traveler 2
Год выпуска: 2017
Страна: Китай
Жанр: боевик, фантастика
Продолжительность: 01:37:25
Перевод: Любительский (многоголосый) | КОЛОБОК
Субтитры: отсутствуют

Режиссер: Чжан Сяньфэн

rating

В ролях:

Тайгер Чэнь, Ван Чжи

Описание:

Борьба с инопланетянами продолжается, после того как Первый робот выучил южный стиль, необходимый для того чтобы одолеть напавших на человечество инопланетян, неуязвимых для любого огнестрельного и энергетического оружия, человечество всё еще находится под угрозой истребления. Чтобы закрепить успех, будущей армии кунг-фу киборгов нужно изучить Северный стиль, а лучший мастер живет спустя семнадцать лет от точки первого перемещения во времени...

Качество: WEB-DL 720p
Формат: MKV

Видео: 4736 Кбит/с, 1280x532
Аудио#1: Русский, (AC3, 2 ch, 384 Кбит/с)
скриншот   скриншот   скриншот  

Общее
Уникальный идентификатор : 214619403158889804084327850227456569319 (0xA176318A766FABBFBA53E1899F646FE7)
Полное имя : D:\Kung.Fu.Traveler.2.2017.Pk.WEB-DL.72Op.mkv
Формат : Matroska
Версия формата : Version 2
Размер файла : 3,55 Гбайт
Продолжительность : 1 ч. 37 м.
Режим общего битрейта : Переменный
Общий поток : 5224 Кбит/сек
Дата кодирования : UTC 2018-08-18 03:50:40
Программа кодирования : mkvmerge v8.3.0 ('Over the Horizon') 64bit
Библиотека кодирования : libebml v1.3.1 + libmatroska v1.4.2

Видео
Идентификатор : 1
Формат : AVC
Формат/Информация : Advanced Video Codec
Профиль формата : High@L4.1
Параметр CABAC формата : Да
Параметр RefFrames формата : 4 кадра
Идентификатор кодека : V_MPEG4/ISO/AVC
Продолжительность : 1 ч. 37 м.
Вид битрейта : Переменный
Битрейт : 4736 Кбит/сек
Максимальный битрейт : 5400 Кбит/сек
Ширина : 1280 пикселей
Высота : 532 пикселя
Соотношение сторон : 2,40:1
Режим частоты кадров : Постоянный
Частота кадров : 23,976 (24000/1001) кадра/сек
Стандарт вещания : Component
Цветовое пространство : YUV
Субдискретизация насыщенности : 4:2:0
Битовая глубина : 8 бит
Тип развёртки : Прогрессивная
Бит/(Пиксели*Кадры) : 0.290
Размер потока : 3,22 Гбайт (91%)
Default : Да
Forced : Нет
Цветовой диапазон : Limited
Основные цвета : BT.709
Характеристики трансфера : BT.709
Коэффициенты матрицы : BT.709

Аудио
Идентификатор : 2
Формат : AC-3
Формат/Информация : Audio Coding 3
Расширение режима : CM (complete main)
Параметр Endianness формата : Big
Идентификатор кодека : A_AC3
Продолжительность : 1 ч. 37 м.
Вид битрейта : Постоянный
Битрейт : 384 Кбит/сек
Каналы : 2 канала
Расположение каналов : Front: L R
Частота : 48,0 КГц
Частота кадров : 31,250 кадров/сек (1536 spf)
Метод сжатия : С потерями
Размер потока : 268 Мбайт (7%)
Default : Да
Forced : Нет

pb.wtf



Скачать Кунг-фу путешественник 2 через торрент http://img11.lostpic.net/2018/08/18/43c212fcae2f949df8654c87021f0d13.jpg Скачать фильм Кунг-фу путешественник 2 через торрент бесплантно в хорошем качестве Описание: Борьба с инопланетянами продолжается, после того как Первый робот выучил южный стиль, необходимый для того чтобы одолеть напавших ... 6.4 10 5
Торрент: Зарегистрирован [2018-08-18 16:45] · скачан: 98 раз
Статус: T временная
Размер: 3.55 GB
Как cкачать? Как скачать Кунг-фу путешественник 2 через торрент | qTorrent

% Раздел Тема Автор DL S | L
T Фильмы (мультфильмы) cо спонсором показа (Новинки AVI/MKV) [ 1.37 GB ] Кунг-фу путешественник 2 / Кунг Фу киборг 3: Северный стиль / Gong fu ji qi xia 2 / Kung Fu Traveler 2 [2017 WEB-DLRip] MVO [КОЛОБОК] bober100 Скачать
1 | 0

28-11-2019 20:33  

Отключить всю рекламу на сайте

19-08-2018 14:33 Кунг-фу путешественник 2 Скачать торрент  

я так понимаю скриншоты показывают показывают мастерскую работу оператора?а ещё в фильме кто нибудь есть или это все кто выжил после вторжения инопланетян? pb.wtf



20-08-2018 06:52 Кунг-фу путешественник 2 Скачать торрент  

Цветок Жив !!!pb.wtf



26-08-2018 19:38 Кунг-фу путешественник 2 Скачать торрент  

А где найти первую часть ? Как она называется ?pb.wtf



28-08-2018 19:03 Кунг-фу путешественник 2 Скачать торрент  

Кунг-фу путешественник 2 / Кунг Фу киборг 3: Северный стиль - двойной агент или тройной смысл?))))))))))))))pb.wtf



    Дорогой пользователь! Огромная просьба, поблагодарите релизера, оцените раздачу и оставьте свои комментарий, если Вы скачали Кунг-фу путешественник 2 через торрент бесплатно! Внесите свою лепту в развитие PiratBit!
    Комментировать посты могут только пользователи прошедшие не сложную регистрацию
    Показать сообщения:    

    Кунг-фу путешественник 2 через торрент
    Скачать бесплатно Кунг-фу путешественник 2
    Кунг-фу путешественник 2 скачать торрент
    Кунг-фу путешественник 2 смотреть онлайн
    Cкачать фильм Кунг-фу путешественник 2 бесплатно
    Кунг-фу путешественник 2 скачать торрент в хорошем качестве
    Кунг-фу путешественник 2 смотреть онлайн бесплатно в хорошем качестве


    Вы не можете начинать темы
    Вы не можете отвечать на сообщения
    Вы не можете редактировать свои сообщения
    Вы не можете удалять свои сообщения
    Вы не можете голосовать в опросах
    Вы не можете прикреплять файлы к сообщениям
    Вы можете скачивать файлы