новый адрес пиратбит piratbit
Мега распродажа FORZA HORIZON 4 ULTIMATE+ВСЕ DLC+ОНЛАЙН всего за 499р. 349 руб. (супер цена). Внимание количество ограничено!!!

iTunes

1+1

iTunes

мы

iTunes

1

iTunes

Чернобыль

iTunes

Ральф против интернета

Лицензия

ПШазам

Лицензия

Игра престолов

Лицензия

30
pack

ВАЖНО

!!Акция!!

Alien_RageХит недели

RePack

Resident Evil 21

ИГРА 18+

pack

RePack

Metro:Exodus

!!Акция!!

Alien_Rage

RePack

fifa19

RePack

Assassins Creed: Odyssey

RePack

NEED FOR SPEED™ PAYBACK

3 сезон

9 сезон

Бесстыжие 9 сезон

Все сериалы

все сериалы на PB.wtf

RePack

FAR CRY 5
Ребята, катастрофически не хватает 1900р. для оплаты серверов за Октябрь (всвязи с блокировками трафик упал в 3 раза), 1-2р., выручайте.
  

Его звали Роберт (Илья Ольшвангер) [1967 г., Фантастическая комедия, DVDRip-AVC] pb.wtf

Его звали Роберт через торрент pb.wtf

Размер: 1.43 GB | Добавлен: 1 год 2 мес. назад | Торрент скачан:25 раз
Скачать  

18-08-2018 17:24 Его звали Роберт Скачать торрент  

Его звали Роберт
Год выпуска: 1967
Страна: СССР
Жанр: Фантастическая комедия
Продолжительность: 01:20:08
Субтитры: Отсутствуют

Режиссер: Илья Ольшвангер

rating

В ролях: Олег Стриженов, Марианна Вертинская, Михаил Пуговкин, Алексей Драницын, Нина Мамаева, Марсель Марсо, Николай Макеев, Владимир Поболь, Игорь Ефимов

Описание: Этот фильм не ходил в лидерах проката, но в конце 60-х годов в СССР его хорошо знали и любили многие. Молодой ученый, руководитель лаборатории Сергей Сергеевич, создает биохимическую модель человека. Робота «РБ-235», точную копию своего создателя, называют Робертом и ради эксперимента выпускают в жизнь, к людям…

Качество: DVDRip-AVC
Формат: MKV
Видео кодек: AVC
Аудио кодек: AC3
Видео: AVC, 706x502@1004x502 , 25.0fps, 2317 Kbps
Аудио#1: AC3 , 2 ch , 48 kHz , 192 kbps
скриншот   скриншот   скриншот   скриншот  

Уникальный идентификатор : 247515106234275058445824245269825267533 (0xBA35ACEC28535CA6A5D5BF4F9FCF274D)
Полное имя : D:Его звали Роберт_1967-DVDRip-AVC_KORSAR.mkv
Формат : Matroska
Версия формата : Version 2
Размер файла : 1,43 Гбайт
Продолжительность : 1 ч. 20 м.
Общий поток : 2560 Кбит/сек
Название фильма : Его звали Роберт_1967-DVDRip-AVC_KORSAR
Дата кодирования : UTC 2018-01-24 10:41:46
Программа кодирования : mkvmerge v5.8.0 ('No Sleep / Pillow') built on Sep 2 2012 15:37:04
Библиотека кодирования : libebml v1.2.3 + libmatroska v1.3.0

Видео
Идентификатор : 1
Формат : AVC
Формат/Информация : Advanced Video Codec
Профиль формата : High@L4.1
Параметр CABAC формата : Да
Параметр RefFrames формата : 14 кадров
Идентификатор кодека : V_MPEG4/ISO/AVC
Продолжительность : 1 ч. 20 м.
Битрейт : 2317 Кбит/сек
Ширина : 706 пикселей
Высота : 502 пикселя
Соотношение сторон : 2,000
Режим частоты кадров : Постоянный
Частота кадров : 25,000 кадров/сек
Цветовое пространство : YUV
Субдискретизация насыщенности : 4:2:0
Битовая глубина : 8 бит
Тип развёртки : Прогрессивная
Бит/(Пиксели*Кадры) : 0.262
Размер потока : 1,30 Гбайт (91%)
Библиотека кодирования : x264 core 148 r2744kMod b97ae06
Настройки программы : cabac=1 / ref=14 / deblock=1:-2:-1 / analyse=0x3:0x133 / me=umh / subme=10 / psy=1 / fade_compensate=0.00 / psy_rd=1.05:0.10 / mixed_ref=1 / me_range=32 / chroma_me=1 / trellis=2 / 8x8dct=1 / cqm=0 / deadzone=21,11 / fast_pskip=1 / chroma_qp_offset=-3 / threads=12 / lookahead_threads=2 / sliced_threads=0 / nr=0 / decimate=1 / interlaced=0 / bluray_compat=0 / constrained_intra=0 / bframes=9 / b_pyramid=2 / b_adapt=2 / b_bias=0 / direct=1 / weightb=1 / open_gop=0 / weightp=2 / keyint=250 / keyint_min=25 / scenecut=40 / intra_refresh=0 / rc_lookahead=40 / rc=crf / mbtree=0 / crf=17.8000 / qcomp=0.63 / qpmin=0 / qpmax=39 / qpstep=4 / vbv_maxrate=50000 / vbv_bufsize=62500 / crf_max=0.0 / nal_hrd=none / filler=0 / ip_ratio=1.40 / pb_ratio=1.30 / aq=2:0.90
Язык : English
Default : Да
Forced : Нет
Цветовой диапазон : Limited
Основные цвета : BT.601 PAL
Характеристики трансфера : BT.470 System B, BT.470 System G
Коэффициенты матрицы : BT.601

Аудио
Идентификатор : 2
Формат : AC-3
Формат/Информация : Audio Coding 3
Параметр Endianness формата : Big
Идентификатор кодека : A_AC3
Продолжительность : 1 ч. 20 м.
Вид битрейта : Постоянный
Битрейт : 192 Кбит/сек
Каналы : 2 канала
Расположение каналов : Front: L R
Частота : 48,0 КГц
Частота кадров : 31,250 кадров/сек (1536 SPF)
Битовая глубина : 16 бит
Метод сжатия : С потерями
Размер потока : 110 Мбайт (7%)
Язык : Russian
Default : Да
Forced : Нет

Меню
00:00:00.000 : en:Chapter 1
00:06:51.840 : en:Chapter 2
00:13:24.200 : en:Chapter 3
00:20:22.880 : en:Chapter 4
00:26:36.800 : en:Chapter 5
00:36:04.640 : en:Chapter 6
00:44:35.120 : en:Chapter 7
00:50:48.920 : en:Chapter 8
00:55:16.760 : en:Chapter 9
01:01:58.520 : en:Chapter 10
01:08:27.360 : en:Chapter 11
01:15:26.680 : en:Chapter 12

pb.wtf



Скачать Его звали Роберт через торрент http://pic1.kartinco.top/images/11/korjn.jpg Скачать фильм Его звали Роберт через торрент бесплантно в хорошем качестве Описание: Этот фильм не ходил в лидерах проката, но в конце 60-х годов в СССР его хорошо знали и любили многие. Молодой ученый, ... 10 10 1
Торрент: Зарегистрирован [2018-08-18 17:24] · скачан: 25 раз
Статус: √ проверено
Размер: 1.43 GB
Как cкачать? Как скачать Его звали Роберт через торрент | qTorrent


>> Регистрируемся здесь <<






Отзывы и комментарии о схеме читаем и пишем здесь: ---> Отзывы и комментарии о схеме

Новые благодарочки в телеграм довольных пользователей:
скриншот   скриншот   скриншот   скриншот   скриншот
    Дорогой пользователь! Огромная просьба, поблагодарите релизера, оцените раздачу и оставьте свои комментарий, если Вы скачали Его звали Роберт через торрент бесплатно! Внесите свою лепту в развитие PiratBit!
    Комментировать посты могут только пользователи прошедшие не сложную регистрацию
    Показать сообщения:    

    Его звали Роберт через торрент
    Скачать бесплатно Его звали Роберт
    Его звали Роберт скачать торрент
    Его звали Роберт смотреть онлайн
    Cкачать фильм Его звали Роберт бесплатно
    Его звали Роберт скачать торрент в хорошем качестве
    Его звали Роберт смотреть онлайн бесплатно в хорошем качестве


    Вы не можете начинать темы
    Вы не можете отвечать на сообщения
    Вы не можете редактировать свои сообщения
    Вы не можете удалять свои сообщения
    Вы не можете голосовать в опросах
    Вы не можете прикреплять файлы к сообщениям
    Вы можете скачивать файлы