Ссылка на приватное зеркало всего за 1$. Внимание количество ограничено!!!

OK

1+1

iTunes

мы

OK

1

WEB-DLRip

Джокер

Пифагор

Ведьмак / The Witcher сериал

Лицензия

ПШазам

ОК

Оно 2

iTunes

30
pack

Вам бонус

ВАЖНО

!!Акция!!

Alien_RageХит недели

RePack

Resident Evil 21

ИГРА 18+

pack

RePack

jed

RePack

fifa19

RePack

Assassins Creed: Odyssey

RePack

NEED FOR SPEED™ PAYBACK

4 сезон

9 сезон

Бесстыжие 9 сезон

Все сериалы

все сериалы на PB.wtf

RePack

FAR CRY 5
  

Клуб злобных мамочек / Wicked Mom's Club (Лэйн Шефтер) [2017, Триллер, WEB-DL 720p] MVO ["Синема УС"] pb.wtf

Клуб злобных мамочек через торрент pb.wtf

Размер: 3.11 GB | Добавлен: 1 год 5 мес. назад | Торрент скачан:22 раза
Скачать  

18-08-2018 18:49 Клуб злобных мамочек Скачать торрент  

Клуб злобных мамочек / Wicked Mom's ClubГод выпуска: 2017
Страна: США
Жанр: Триллер
Продолжительность: 01:31:34
Перевод: Любительский (многоголосый) | "Синема УС"
Субтитры: отсутствуют

Режиссер: Лэйн Шефтер

rating

В ролях:

Джессика Блэкмор, Эшли Вуд, Джой Дараш, Гери-Николь Лав, Аманда, Адам Атертон, Дэвид Клайд Карр, Джефф Делани, Джордж Диксон, Хатчи Хэнкок

Описание:

Мэнди вместе со своей дочерью переезжают в новое место в надежде начать все с чистого листа. Городом заправляет стервозная Оливия Питерсон, которая вначале втирается в доверие к Мэнди, а после пытается разрушить ее жизнь. Сможет ли противостоять Мэнди, или эта женщина погубит ее и ее дочь?

Качество: WEB-DL 720p
Формат: MKV

Видео: h.264, 4 476 kb/s, 1280x720
Аудио#1: Русский, (AC3, 2 ch, 384 Кбит/с)
скриншот  скриншот  скриншот  

Общее
Уникальный идентификатор : 229660649626146009845710063930037755827 (0xACC7083F52D9B902B80A6CBF986BDFB3)
Полное имя : D:\Wicked.Moms.Club.2O17.P.WEB-DL.72Op_KOSHARA.mkv
Формат : Matroska
Версия формата : Version 2
Размер файла : 3,11 Гбайт
Продолжительность : 1 ч. 31 м.
Режим общего битрейта : Переменный
Общий поток : 4861 Кбит/сек
Дата кодирования : UTC 2018-08-18 02:46:07
Программа кодирования : mkvmerge v8.3.0 ('Over the Horizon') 64bit
Библиотека кодирования : libebml v1.3.1 + libmatroska v1.4.2

Видео
Идентификатор : 1
Формат : AVC
Формат/Информация : Advanced Video Codec
Профиль формата : High@L4.1
Параметр CABAC формата : Да
Параметр RefFrames формата : 4 кадра
Идентификатор кодека : V_MPEG4/ISO/AVC
Продолжительность : 1 ч. 31 м.
Вид битрейта : Переменный
Битрейт : 4476 Кбит/сек
Максимальный битрейт : 5000 Кбит/сек
Ширина : 1280 пикселей
Высота : 720 пикселей
Соотношение сторон : 16:9
Режим частоты кадров : Постоянный
Частота кадров : 23,976 (24000/1001) кадра/сек
Стандарт вещания : Component
Цветовое пространство : YUV
Субдискретизация насыщенности : 4:2:0
Битовая глубина : 8 бит
Тип развёртки : Прогрессивная
Бит/(Пиксели*Кадры) : 0.198
Размер потока : 2,80 Гбайт (90%)
Default : Да
Forced : Нет
Цветовой диапазон : Limited
Основные цвета : BT.709
Характеристики трансфера : BT.709
Коэффициенты матрицы : BT.709

Аудио
Идентификатор : 2
Формат : AC-3
Формат/Информация : Audio Coding 3
Расширение режима : CM (complete main)
Параметр Endianness формата : Big
Идентификатор кодека : A_AC3
Продолжительность : 1 ч. 31 м.
Вид битрейта : Постоянный
Битрейт : 384 Кбит/сек
Каналы : 2 канала
Расположение каналов : Front: L R
Частота : 48,0 КГц
Частота кадров : 31,250 кадров/сек (1536 spf)
Метод сжатия : С потерями
Размер потока : 251 Мбайт (8%)
Default : Да
Forced : Нет

pb.wtf



Скачать Клуб злобных мамочек через торрент http://img11.lostpic.net/2018/08/18/656f724c9b5b6a19eaea9e58e41b4d79.jpg Скачать фильм Клуб злобных мамочек через торрент бесплантно в хорошем качестве Описание: Мэнди вместе со своей дочерью переезжают в новое место в надежде начать все с чистого листа. Городом заправляет стервозная Оливия ... 7 10 3
Торрент: Зарегистрирован [2018-08-18 18:49] · скачан: 22 раз
Статус: T временная
Размер: 3.11 GB
Как cкачать? Как скачать Клуб злобных мамочек через торрент | qTorrent

28-11-2019 20:33  

Отключить всю рекламу на сайте

    Дорогой пользователь! Огромная просьба, поблагодарите релизера, оцените раздачу и оставьте свои комментарий, если Вы скачали Клуб злобных мамочек через торрент бесплатно! Внесите свою лепту в развитие PiratBit!
    Комментировать посты могут только пользователи прошедшие не сложную регистрацию
    Показать сообщения:    

    Клуб злобных мамочек через торрент
    Скачать бесплатно Клуб злобных мамочек
    Клуб злобных мамочек скачать торрент
    Клуб злобных мамочек смотреть онлайн
    Cкачать фильм Клуб злобных мамочек бесплатно
    Клуб злобных мамочек скачать торрент в хорошем качестве
    Клуб злобных мамочек смотреть онлайн бесплатно в хорошем качестве


    Вы не можете начинать темы
    Вы не можете отвечать на сообщения
    Вы не можете редактировать свои сообщения
    Вы не можете удалять свои сообщения
    Вы не можете голосовать в опросах
    Вы не можете прикреплять файлы к сообщениям
    Вы можете скачивать файлы