2 сезон

iTunes

1 сезон

1

iTunes

iTunes

iTunes

1 сезон

RePack

30

ИГРА 18+

pack

ВАЖНО

!!Акция!!

Alien_RageХит недели

RePack

MK11
pack

Забери бонус

RePack

jed

!!Акция!!

Alien_Rage

RePack

fifa19

RePack

Assassins Creed: Odyssey

RePack

NEED FOR SPEED™ PAYBACK

4 сезон

9 сезон

Бесстыжие 9 сезон

Все сериалы

все сериалы на PB.wtf

RePack

FAR CRY 5
  

Прекрасные создания / Серии: 1-2 из 2 (Максим Субботин) [2018, Мелодрама, HDTV 1080i] pb.wtf

Прекрасные создания через торрент pb.wtf

Размер: 9.46 GB | Добавлен: 2 года 2 мес. назад | Торрент скачан:42 раза
Скачать  

19-08-2018 01:43 Прекрасные создания Скачать торрент  

Прекрасные созданияГод выпуска: 2018
Страна: Россия
Жанр: Мелодрама
Продолжительность: ~ 01:30:00
Субтитры: отсутствуют

Режиссер: Максим Субботин



В ролях:

Юлия Подозёрова, Владислав Шкляев, Анастасия Акатова, Нил Кропалов, Дмитрий Муляр, Екатерина Малахит, Алёна Козырева, Виктор Рябов, Алексей Котовщиков, Иван Латушко, Наталья Третьякова, Владимир Верёвочкин, Максим Битюков, Анна Галлямова, Сергей Кириченко

Описание:

Анна и Ксюша - жена и дочь нечистого на руку провинциального миллионера, узнают, что отец их семейства сбежал, скрываясь от полиции. Дом и машины конфискованы, счета заморожены, но женщины придумывают невероятный план: они продают оставшееся имущество и едут в Москву на поиски обеспеченных мужчин в надежде выгодно выйти замуж. Привыкшие к тепличным условиям, Анна и Ксения сталкиваются с реальной жизнью, которая оказывается совсем не такой дружелюбной, как они себе представляли. Вчерашние светские львицы вынуждены жить в Подмосковье, устроиться на работу и учиться жить по средствам. Героини упорно ищут лёгкой жизни, а к своему счастью находят любовь.

Качество: HDTV 1080i
Формат: TS

Видео: MPEG-4 AVC, ~ 7100 Кбит/с, 1920x1080, 25 Кадр/с
Аудио: Русский (MP2, 2 ch, 192 Кбит/с)
скриншот  скриншот  скриншот  скриншот  

Общее
Идентификатор : 1 (0x1)
Полное имя : D:\Prekrasnye.sozdaniya.2018.HDTV.1080i\Prekrasnye.sozdaniya.01.2018.HDTV.1080i.ts
Формат : MPEG-TS
Размер файла : 4,72 Гбайт
Продолжительность : 1 ч. 28 м.
Режим общего битрейта : Переменный
Общий поток : 7653 Кбит/сек

Видео
Идентификатор : 2911 (0xB5F)
Идентификатор меню : 1192 (0x4A8)
Формат : AVC
Формат/Информация : Advanced Video Codec
Профиль формата : High@L4
Параметр CABAC формата : Да
Параметр RefFrames формата : 4 кадра
Идентификатор кодека : 27
Продолжительность : 1 ч. 28 м.
Битрейт : 7081 Кбит/сек
Ширина : 1920 пикселей
Высота : 1080 пикселей
Соотношение сторон : 16:9
Частота кадров : 25,000 кадров/сек
Цветовое пространство : YUV
Субдискретизация насыщенности : 4:2:0
Битовая глубина : 8 бит
Тип развёртки : MBAFF
Метод сохранения типа развёртки : Чередующиеся поля
Порядок развёртки : Верхнее поле первое
Бит/(Пиксели*Кадры) : 0.137
Размер потока : 4,36 Гбайт (93%)

Аудио
Идентификатор : 2912 (0xB60)
Идентификатор меню : 1192 (0x4A8)
Формат : MPEG Audio
Версия формата : Version 1
Профиль формата : Layer 2
Идентификатор кодека : 3
Продолжительность : 1 ч. 28 м.
Вид битрейта : Постоянный
Битрейт : 192 Кбит/сек
Каналы : 2 канала
Частота : 48,0 КГц
Метод сжатия : С потерями
Задержка видео : -200 мс.
Размер потока : 121 Мбайт (3%)
Язык : Russian

pb.wtf



Скачать Прекрасные создания через торрент http://i103.fastpic.ru/big/2018/0819/cf/549a219ad3d5381abfdf49a1f45897cf.jpg Скачать фильм Прекрасные создания через торрент бесплантно в хорошем качестве Описание: Анна и Ксюша - жена и дочь нечистого на руку провинциального миллионера, узнают, что отец их семейства сбежал, скрываясь от ... 10 10 2
Торрент: Зарегистрирован [2018-08-19 01:43] · скачан: 42 раз
Статус: √ проверено
Размер: 9.46 GB
Как cкачать? Как скачать Прекрасные создания через торрент | qTorrent

% Раздел Тема Автор DL S | L
Наши сериалы [ 2.73 GB ] Прекрасные создания / Серии: 1-2 из 2 [2018 HDTVRip] bober100 Скачать
1 | 0
Наши сериалы [ 9.01 GB ] Прекрасные создания / Сезон 1 / Серии 1-2 из 2 [2018 HDTV 1080p] [Русский] R.G.Generalfilm White Smoke Скачать
1 | 0

28-11-2019 20:33  

Отключить всю рекламу на сайте

    Дорогой пользователь! Огромная просьба, поблагодарите релизера, оцените раздачу и оставьте свои комментарий, если Вы скачали Прекрасные создания через торрент бесплатно! Внесите свою лепту в развитие PiratBit!
    Комментировать посты могут только пользователи прошедшие не сложную регистрацию
    Показать сообщения:    

    Прекрасные создания через торрент
    Скачать бесплатно Прекрасные создания
    Прекрасные создания скачать торрент
    Прекрасные создания смотреть онлайн
    Cкачать фильм Прекрасные создания бесплатно
    Прекрасные создания скачать торрент в хорошем качестве
    Прекрасные создания смотреть онлайн бесплатно в хорошем качестве


    Вы не можете начинать темы
    Вы не можете отвечать на сообщения
    Вы не можете редактировать свои сообщения
    Вы не можете удалять свои сообщения
    Вы не можете голосовать в опросах
    Вы не можете прикреплять файлы к сообщениям
    Вы можете скачивать файлы