Ссылка на приватное зеркало нашего сайта всего за 1$. Внимание количество ограничено!!!

2 сезон

iTunes

1 сезон

1

2 сезон

2 сезон

iTunes

1 сезон

RePack

30

Новинка

ВАЖНО

ИГРА 18+

pack

RePack

MK11
pack

Забери бонус

RePack

jed

!!Акция!!

Alien_Rage

RePack

fifa19

RePack

Assassins Creed: Odyssey

RePack

NEED FOR SPEED™ PAYBACK

4 сезон

9 сезон

Бесстыжие 9 сезон

Все сериалы

все сериалы на PB.wtf

RePack

FAR CRY 5
  

Всё о Вашингтонах / All About The Washingtons / Сезон: 1 / Серии 1-10 из 10 (Джереми Бронсон) [2018, США, комедия, WEBRip] MVO [BaibaKo] pb.wtf

Всё о Вашингтонах через торрент pb.wtf

Размер: 2.74 GB | Добавлен: 2 года 1 мес. назад | Торрент скачан:0 раз
Скачать  

19-08-2018 02:32 Всё о Вашингтонах Скачать торрент  

Всё о Вашингтонах / All About The Washingtons


  • Год выпуска: 2018
  • Страна: США
  • Жанр: комедия
  • Продолжительность: ~ 00:25:00 (Серия)
  • Перевод: Профессиональный многоголосый [BaibaKo]
  • Режиссер: Джереми Бронсон
  • В ролях:
    Нэйтан Андерсон, Киана Браун, Джозеф Симмонс, Джастин Симмонс, Масео Смедли, Сет Карр, Эрик Чаварриа, Джейден Блейк Кохрэн, Кейт Коэн



  • Хип-хоп король MC Джо Спид, или просто Джоуи Вашингтон, решает завязать с шоу-бизнесом и уйти на пенсию. Его супруга Джастин, которая долгие годы была домохозяйкой, решает воспользоваться этим моментом чтобы начать собственную карьеру. Отныне главному герою сериала «Все о Вашингтонах» предстоит научиться делать все то, чем раньше занималась его жена, — следить за хозяйством, воспитывать четверых детей и сохранять крепкие романтические отношения с женой.
  • Рейтинг:

    rating
  • Качество: WEBRip
  • Формат: :AVI
  • Видео кодек: XviD
  • Аудио кодек: MP3
  • Видео: 1448 Кбит/сек, 720*400 (16:9), в 23,976 (24000/1001) кадра/сек, MPEG-4 Visual (XviD)
  • Аудио №1: русский 192 Кбит/сек, 48,0 КГц, 2 канала, MPEG Audio (MP3) |[BaibaKo]|
  • Релиз от: GEKADOL

    Внимание! Раздача ведётся путём добавления новых серий; при каждом добавлении создаётся новый торрент. Чтобы начать докачку новой серии, пользователям необходимо сделать следующее:
    (1) остановить скачивание,
    (2) удалить старый торрент у себя из клиента (старые серии удалять не надо),
    (3) скачать новый торрент и запустить его у себя в клиенте вместо старого, при этом указать клиенту путь в старую папку куда и должно происходить скачивание новых серий.
    Ваш клиент при этом должен произвести хеширование (проверку) старой папки (если не производит сам - помогите ему сделать это), и будет докачивать только те серии которых у вас ещё нет. Старые серии при этом не удаляются, а продолжают раздаваться!
    Eсли вы уже удалили старые серии, то предотвратить повторную закачку старых серий можно, отжав галочку в соответствующих местах при запуске нового торрента. По возможности, желательно не удалять старые серии как можно дольше чтобы релизёр не столько продолжал раздавать старые серии, а смог сконцентрироваться на новых.
    Общее
    Полное имя : G:\Всё о Вашингтонах (All About The Washingtons) S.1\All.About.the.Washingtons.S01e04.WEBRip.XviD.Rus.BaibaKo.avi
    Формат : AVI
    Формат/Информация : Audio Video Interleave
    Размер файла : 291 Мбайт
    Продолжительность : 24 м. 38 с.
    Общий поток : 1651 Кбит/сек

    Видео
    Идентификатор : 0
    Формат : MPEG-4 Visual
    Профиль формата : Advanced Simple@L5
    Настройки формата : BVOP2
    Параметр BVOP формата : 2
    Параметр QPel формата : Нет
    Параметр GMC формата : Без точки перехода
    Параметр матрицы формата : Default (H.263)
    Идентификатор кодека : XVID
    Идентификатор кодека/Подсказка : XviD
    Продолжительность : 24 м. 38 с.
    Битрейт : 1449 Кбит/сек
    Ширина : 720 пикселей
    Высота : 400 пикселей
    Соотношение сторон : 16:9
    Частота кадров : 23,976 (24000/1001) кадра/сек
    Цветовое пространство : YUV
    Субдискретизация насыщенности : 4:2:0
    Битовая глубина : 8 бит
    Тип развёртки : Прогрессивная
    Метод сжатия : С потерями
    Бит/(Пиксели*Кадры) : 0.210
    Размер потока : 255 Мбайт (88%)
    Библиотека кодирования : XviD 67

    Аудио
    Идентификатор : 1
    Формат : MPEG Audio
    Версия формата : Version 1
    Профиль формата : Layer 3
    Настройки формата : Joint stereo / MS Stereo
    Идентификатор кодека : 55
    Идентификатор кодека/Подсказка : MP3
    Продолжительность : 24 м. 38 с.
    Вид битрейта : Постоянный
    Битрейт : 192 Кбит/сек
    Каналы : 2 канала
    Частота : 48,0 КГц
    Метод сжатия : С потерями
    Задержка видео : 4 мс.
    Размер потока : 33,8 Мбайт (12%)
    Выравнивание : Разделение по промежуткам
    Продолжительность промежутка : 42 мс. (1,00 видеокадр)
    Время предзагрузки промежутка : 500 мс.
    Библиотека кодирования : LAMEЄ.Шн’zИЊ”…зA]В



    Скриншоты:
    скриншот   скриншот   скриншот   скриншот   скриншот   скриншот   скриншот  
    скриншот  

    Раздача ведётся путём добавления новых серий. Добавлена 10 серия (08.10.2018).Просьба перекачать торрент файл.

    pb.wtf



  • Скачать Всё о Вашингтонах через торрент http://pic1.kartinco.top/images/11/j2jby.jpg Скачать фильм Всё о Вашингтонах через торрент бесплантно в хорошем качестве qw.png Хип-хоп король MC Джо Спид, или просто Джоуи Вашингтон, решает завязать с шоу-бизнесом и уйти на пенсию. Его супруга Джастин, ... 2 10 2
    Info! Золотая раздача, скачанное не засчитывается.
    Торрент: Зарегистрирован [2018-10-07 23:31] · скачан: 0 раз
    Статус: √ проверено
    Размер: 2.74 GB
    Как cкачать? Как скачать Всё о Вашингтонах через торрент | qTorrent

    28-11-2019 20:33  

    Отключить всю рекламу на сайте

      Дорогой пользователь! Огромная просьба, поблагодарите релизера, оцените раздачу и оставьте свои комментарий, если Вы скачали Всё о Вашингтонах через торрент бесплатно! Внесите свою лепту в развитие PiratBit!
      Комментировать посты могут только пользователи прошедшие не сложную регистрацию
      Показать сообщения:    

      Всё о Вашингтонах через торрент
      Скачать бесплатно Всё о Вашингтонах
      Всё о Вашингтонах скачать торрент
      Всё о Вашингтонах смотреть онлайн
      Cкачать фильм Всё о Вашингтонах бесплатно
      Всё о Вашингтонах скачать торрент в хорошем качестве
      Всё о Вашингтонах смотреть онлайн бесплатно в хорошем качестве


      Вы не можете начинать темы
      Вы не можете отвечать на сообщения
      Вы не можете редактировать свои сообщения
      Вы не можете удалять свои сообщения
      Вы не можете голосовать в опросах
      Вы не можете прикреплять файлы к сообщениям
      Вы можете скачивать файлы