Ссылка на приватное зеркало всего за 1$. Внимание количество ограничено!!!

OK

1+1

iTunes

мы

OK

1

WEB-DLRip

Джокер

Пифагор

Ведьмак / The Witcher сериал

Лицензия

ПШазам

ОК

Оно 2

iTunes

30
pack

Вам бонус

ВАЖНО

!!Акция!!

Alien_RageХит недели

RePack

Resident Evil 21

ИГРА 18+

pack

RePack

jed

!!Акция!!

Alien_Rage

RePack

fifa19

RePack

Assassins Creed: Odyssey

RePack

NEED FOR SPEED™ PAYBACK

4 сезон

9 сезон

Бесстыжие 9 сезон

Все сериалы

все сериалы на PB.wtf

RePack

FAR CRY 5
  

Ангел-хранитель / The Guardian Angel (Арто Халонен) [2018 г., Триллер, WEB-DLRip, Любительский (многоголосый)(MUZOBOZ)] pb.wtf

Ангел-хранитель через торрент pb.wtf

Размер: 1.24 GB | Добавлен: 1 год 5 мес. назад | Торрент скачан:133 раза
Скачать  

19-08-2018 02:53 Ангел-хранитель Скачать торрент  

Ангел-хранитель / The Guardian Angel
Год выпуска: 2018
Страна: Финляндия, Дания, Хорватия
Жанр: Триллер
Продолжительность: 01:41:04
Перевод: Любительский (многоголосый)(MUZOBOZ)
Субтитры: Отсутствуют

Режиссер: Арто Халонен

Премьера в мире: 12 марта 2018

rating

В ролях: Джош Лукас, Йохан Филип Асбек, Раде Шербеджия, Кристофер Фулфорд, Йоханнес Лассен, Сирон Бьёрн Мелвиль, Памела Тола, Микко Ноусиайнен, Сара Сулей, Рок Цветков

Описание: Для расследования серии загадочных ограблений банков и возможного заговора бывших нацистских приспешников, полицейскому детективу приходится применить нетрадиционные методы работы и прибегнуть к помощи гипнотизёра с сомнительной репутацией.

Качество: WEB-DLRip
Формат: AVI
Видео кодек: XviD
Аудио кодек: AC3
Видео: XviD, 720x304, ~1557 Kbps
Аудио#1: AC-3, 2 ch, 192 Kbps

Реклама: Присутствуют вставки текстовой рекламы
скриншот   скриншот   скриншот   скриншот  

Общее
Полное имя : E:\NNM\Ангел-хранитель\The Guardian Angel 2018 WEB-DLRip.avi
Формат : AVI
Формат/Информация : Audio Video Interleave
Профиль формата : OpenDML
Размер файла : 1,24 Гбайт
Продолжительность : 1 ч. 41 м.
Общий поток : 1762 Кбит/сек

Видео
Идентификатор : 0
Формат : MPEG-4 Visual
Профиль формата : Advanced Simple@L5
Настройки формата : BVOP2 / Custom Matrix
Параметр BVOP формата : 2
Параметр QPel формата : Нет
Параметр GMC формата : Без точки перехода
Параметр матрицы формата : Выборочная
Идентификатор кодека : XVID
Идентификатор кодека/Подсказка : XviD
Продолжительность : 1 ч. 41 м.
Битрейт : 1557 Кбит/сек
Ширина : 720 пикселей
Высота : 304 пикселя
Соотношение сторон : 2,35:1
Частота кадров : 23,976 (24000/1001) кадра/сек
Цветовое пространство : YUV
Субдискретизация насыщенности : 4:2:0
Битовая глубина : 8 бит
Тип развёртки : Прогрессивная
Метод сжатия : С потерями
Бит/(Пиксели*Кадры) : 0.297
Размер потока : 1,10 Гбайт (88%)
Библиотека кодирования : XviD 1.2.1 (UTC 2008-12-04)

Аудио
Идентификатор : 1
Формат : AC-3
Формат/Информация : Audio Coding 3
Идентификатор кодека : 2000
Продолжительность : 1 ч. 41 м.
Вид битрейта : Постоянный
Битрейт : 192 Кбит/сек
Каналы : 2 канала
Расположение каналов : Front: L R
Частота : 48,0 КГц
Частота кадров : 31,250 кадров/сек (1536 SPF)
Битовая глубина : 16 бит
Метод сжатия : С потерями
Размер потока : 139 Мбайт (11%)
Выравнивание : Соединение по промежуткам
Продолжительность промежутка : 32 мс. (0,77 видеокадр)
ServiceKind/String : Complete Main

pb.wtf



Скачать Ангел-хранитель через торрент http://pic1.kartinco.top/images/11/5k9fz.jpg Скачать фильм Ангел-хранитель через торрент бесплантно в хорошем качестве Описание: Для расследования серии загадочных ограблений банков и возможного заговора бывших нацистских приспешников, полицейскому детективу ... 10 10 2
Торрент: Зарегистрирован [2018-08-19 02:53] · скачан: 133 раз
Статус: T временная
Размер: 1.24 GB
Как cкачать? Как скачать Ангел-хранитель через торрент | qTorrent

% Раздел Тема Автор DL S | L
T Фильмы (мультфильмы) cо спонсором показа (Новинки AVI/MKV) [ 3.56 GB ] Ангел-хранитель / The Guardian Angel [2018 WEB-DL 720p] MVO [@MUZOBOZ@] bober100 Скачать
1 | 0

28-11-2019 20:33  

Отключить всю рекламу на сайте

    Дорогой пользователь! Огромная просьба, поблагодарите релизера, оцените раздачу и оставьте свои комментарий, если Вы скачали Ангел-хранитель через торрент бесплатно! Внесите свою лепту в развитие PiratBit!
    Комментировать посты могут только пользователи прошедшие не сложную регистрацию
    Показать сообщения:    

    Ангел-хранитель через торрент
    Скачать бесплатно Ангел-хранитель
    Ангел-хранитель скачать торрент
    Ангел-хранитель смотреть онлайн
    Cкачать фильм Ангел-хранитель бесплатно
    Ангел-хранитель скачать торрент в хорошем качестве
    Ангел-хранитель смотреть онлайн бесплатно в хорошем качестве


    Вы не можете начинать темы
    Вы не можете отвечать на сообщения
    Вы не можете редактировать свои сообщения
    Вы не можете удалять свои сообщения
    Вы не можете голосовать в опросах
    Вы не можете прикреплять файлы к сообщениям
    Вы можете скачивать файлы