MEGA SALE -50% FORZA HORIZON 4 ULTIMATE+ВСЕ DLC+ОНЛАЙН всего за 599р. 299 руб. (супер цена). Внимание количество ограничено!!!

iTunes

1+1

iTunes

мы

iTunes

1

iTunes

Чернобыль

iTunes

Ральф против интернета

Лицензия

ПШазам

Лицензия

Игра престолов

Лицензия

30
pack

ВАЖНО

!!Акция!!

Alien_RageХит недели

RePack

Resident Evil 21

ИГРА 18+

pack

RePack

Metro:Exodus

!!Акция!!

Alien_Rage

RePack

fifa19

RePack

Assassins Creed: Odyssey

RePack

NEED FOR SPEED™ PAYBACK

3 сезон

9 сезон

Бесстыжие 9 сезон

Все сериалы

все сериалы на PB.wtf

RePack

FAR CRY 5
Ребята, катастрофически не хватает 7730р. для оплаты серверов за АВГУСТ (всвязи с блокировками трафик упал в 3 раза), 1-2р., выручайте.
  

Мстители: Война бесконечности 3Д / Avengers: Infinity War 3D (Энтони Руссо, Джо Руссо) [2018, фантастика, фэнтези, боевик, приключения, BDRip 1080p] [Anamorph SideBySide / Горизонтальная анаморфная стереопара] DUB [iTunes] pb.wtf

Мстители: Война бесконечности 3Д через торрент pb.wtf

Раздают: 2 [ 0 KB/s ]
Размер: 17.14 GB | Добавлен: 1 год 1 мес. назад | Торрент скачан:301 раз
Скачать  

19-08-2018 05:33 Мстители: Война бесконечности 3Д Скачать торрент  

Мстители: Война бесконечности 3Д / Avengers: Infinity War 3D
Год выпуска: 2018
Страна: США
Жанр: фантастика, фэнтези, боевик, приключения
Продолжительность: 02:29:41
Перевод: Дублированный | iTunes
Субтитры: Русские (forced, full, SDH), английские

Режиссер: Энтони Руссо, Джо Руссо

rating

В ролях:

Роберт Дауни мл. (Tony Stark / Iron Man), Крис Хемсворт (Thor), Марк Руффало (Bruce Banner / Hulk), Крис Эванс (Steve Rogers / Captain America), Скарлетт Йоханссон (Natasha Romanoff / Black Widow), Дон Чидл (James Rhodes / War Machine), Бенедикт Камбербэтч (Doctor Strange), Том Холланд (Peter Parker / Spider-Man), Чедвик Боузман (T'Challa / Black Panther), Зои Салдана (Gamora), Карен Гиллан (Nebula), Том Хиддлстон (Loki)
Описание:

Пока Мстители и их союзники продолжают защищать мир от различных опасностей, с которыми не смог бы справиться один супергерой, новая угроза возникает из космоса: Танос. Межгалактический тиран преследует цель собрать все шесть Камней Бесконечности — артефакты невероятной силы, с помощью которых можно менять реальность по своему желанию. Всё, с чем Мстители сталкивались ранее, вело к этому моменту — судьба Земли никогда ещё не была столь неопределённой.

Качество: BDRip 1080p
Формат: MKV

Видео: MPEG-4 AVC, 1920x1080, 14.5 Mbit/s, 23.976 fps
Аудио#1: 48 kHz, AC3, 5.1, 384 Kbps | iTunes | RUS |
Аудио#2: 48 kHz, DTS, 5.1, 1510 Kbps | Оригинал | ENG |


Формат 3D: Anamorph SideBySide / Горизонтальная анаморфная стереопара.
Порядок ракурсов: левый ракурс первый
скриншот  скриншот  скриншот  скриншот  скриншот  

General
Unique ID : 99642675660050543845270887308716453002 (0x4AF67B351E074521CEA7CE9F7EA8AC8A)
Complete name : D:Video111Avengers.Infinity.War.2018.3D.HSBS.BDRip.1080p.ExKinoRay.mkv
Format : Matroska
Format version : Version 4 / Version 2
File size : 17.1 GiB
Duration : 2 h 29 min
Overall bit rate : 16.4 Mb/s
Movie name : Avengers Infinity War (2018) from ExKinoRay
Encoded date : UTC 2018-08-19 04:37:37
Writing application : mkvmerge v23.0.0 ('The Bride Said No') 64-bit
Writing library : libebml v1.3.6 + libmatroska v1.4.9

Video
ID : 1
Format : AVC
Format/Info : Advanced Video Codec
Format profile : High@L4.1
MultiView_Count : 2
MultiView_Layout : Side by Side (left eye first)
Format settings : CABAC / 4 Ref Frames
Format settings, CABAC : Yes
Format settings, ReFrames : 4 frames
Codec ID : V_MPEG4/ISO/AVC
Duration : 2 h 29 min
Bit rate : 14.5 Mb/s
Width : 1 920 pixels
Height : 1 080 pixels
Display aspect ratio : 16:9
Frame rate mode : Constant
Frame rate : 23.976 (24000/1001) FPS
Color space : YUV
Chroma subsampling : 4:2:0
Bit depth : 8 bits
Scan type : Progressive
Bits/(Pixel*Frame) : 0.292
Stream size : 15.2 GiB (88%)
Writing library : x264 core 152 r2851 ba24899
Encoding settings : cabac=1 / ref=4 / deblock=1:-3:-3 / analyse=0x3:0x113 / me=umh / subme=11 / psy=1 / psy_rd=1.00:0.00 / mixed_ref=1 / me_range=32 / chroma_me=1 / trellis=2 / 8x8dct=1 / cqm=0 / deadzone=21,11 / fast_pskip=0 / chroma_qp_offset=-2 / threads=12 / lookahead_threads=3 / sliced_threads=0 / nr=0 / decimate=0 / interlaced=0 / bluray_compat=0 / constrained_intra=0 / bframes=10 / b_pyramid=2 / b_adapt=2 / b_bias=0 / direct=3 / weightb=1 / open_gop=0 / weightp=2 / keyint=250 / keyint_min=23 / scenecut=40 / intra_refresh=0 / rc_lookahead=60 / rc=crf / mbtree=0 / crf=15.3 / qcomp=0.65 / qpmin=0 / qpmax=69 / qpstep=4 / vbv_maxrate=62500 / vbv_bufsize=78125 / crf_max=0.0 / nal_hrd=none / filler=0 / frame-packing=3 / ip_ratio=1.30 / pb_ratio=1.20 / aq=3:0.85 / zones=215,1103,crf=14/1178,14858,crf=14/16308,16512,crf=14/20101,20185,crf=14/36376,38698,crf=14/39412,51519,crf=14/52765,60968,crf=14/63958,67794,crf=14/67795,77573,crf=14/85756,93677,crf=14/112592,113224,crf=14/113358,117814,crf=14/121193,131100,crf=14/134395,134768,crf=14/136212,139334,crf=14/146743,150412,crf=14/188770,190400,crf=14/197781,212436,crf=16.5
Language : English
Default : Yes
Forced : No
Color range : Limited
Color primaries : BT.709
Transfer characteristics : BT.709
Matrix coefficients : BT.709

Audio #1
ID : 2
Format : AC-3
Format/Info : Audio Coding 3
Commercial name : Dolby Digital
Codec ID : A_AC3
Duration : 2 h 29 min
Bit rate mode : Constant
Bit rate : 384 kb/s
Channel(s) : 6 channels
Channel positions : Front: L C R, Side: L R, LFE
Sampling rate : 48.0 kHz
Frame rate : 31.250 FPS (1536 SPF)
Bit depth : 16 bits
Compression mode : Lossy
Stream size : 411 MiB (2%)
Title : iTunes
Language : Russian
Service kind : Complete Main
Default : Yes
Forced : Yes

Audio #2
ID : 3
Format : DTS
Format/Info : Digital Theater Systems
Codec ID : A_DTS
Duration : 2 h 29 min
Bit rate mode : Constant
Bit rate : 1 509 kb/s
Channel(s) : 6 channels
Channel positions : Front: L C R, Side: L R, LFE
Sampling rate : 48.0 kHz
Frame rate : 93.750 FPS (512 SPF)
Bit depth : 24 bits
Compression mode : Lossy
Stream size : 1.57 GiB (9%)
Title : Original
Language : English
Default : No
Forced : No

Text #1
ID : 4
Format : UTF-8
Codec ID : S_TEXT/UTF8
Codec ID/Info : UTF-8 Plain Text
Duration : 2 h 12 min
Bit rate : 0 b/s
Count of elements : 14
Stream size : 373 Bytes (0%)
Title : Forced
Language : Russian
Default : Yes
Forced : Yes

Text #2
ID : 5
Format : UTF-8
Codec ID : S_TEXT/UTF8
Codec ID/Info : UTF-8 Plain Text
Duration : 2 h 28 min
Bit rate : 64 b/s
Count of elements : 1596
Stream size : 70.4 KiB (0%)
Title : Full
Language : Russian
Default : No
Forced : No

Text #3
ID : 6
Format : UTF-8
Codec ID : S_TEXT/UTF8
Codec ID/Info : UTF-8 Plain Text
Duration : 2 h 28 min
Bit rate : 76 b/s
Count of elements : 2085
Stream size : 83.2 KiB (0%)
Title : SDH
Language : Russian
Default : No
Forced : No

Text #4
ID : 7
Format : UTF-8
Codec ID : S_TEXT/UTF8
Codec ID/Info : UTF-8 Plain Text
Duration : 2 h 28 min
Bit rate : 70 b/s
Count of elements : 2067
Stream size : 76.5 KiB (0%)
Language : English
Default : No
Forced : No

Menu
00:00:00.000 : en:Thanos Is Coming
00:11:28.000 : en:Infinity Stones
00:18:14.000 : en:Fight For The Time Stone
00:27:23.000 : en:Who The Hell Are You Guys?
00:35:48.000 : en:Wanda And Vision
00:42:23.000 : en:Knowhere
00:54:12.000 : en:Avengers Assemble
00:59:36.000 : en:Take The Fight To Him
01:05:07.000 : en:The Soul Stone
01:10:53.000 : en:Nidavellir
01:17:07.000 : en:Titan
01:24:14.000 : en:Vormir
01:31:08.000 : en:"Wakanda Forever"
01:42:00.000 : en:Stormbreaker
01:45:57.000 : en:Titan Confrontation
01:53:04.000 : en:A Vision Situation
01:58:53.000 : en:The Time Stone
02:03:58.000 : en:The End Game
02:11:13.000 : en:Aftermath
02:17:31.000 : en:End Credits

pb.wtf



Скачать Мстители: Война бесконечности 3Д через торрент http://i100.fastpic.ru/big/2018/0818/bc/d8f3f5f280dcaf77a513d192f7d97dbc.png Скачать фильм Мстители: Война бесконечности 3Д через торрент бесплантно в хорошем качестве Описание: Пока Мстители и их союзники продолжают защищать мир от различных опасностей, с которыми не смог бы справиться один супергерой, ... 10 10 3
Info! Золотая раздача, скачанное не засчитывается.
Торрент: Зарегистрирован [2018-08-19 05:33] · скачан: 301 раз
Статус: √ проверено
Размер: 17.14 GB
Как cкачать? Как скачать Мстители: Война бесконечности 3Д через торрент | qTorrent

% Раздел Тема Автор DL S | L
3D Фильмы [ 12.46 GB ] Мстители: Война бесконечности 3Д / Avengers: Infinity War 3D [2018 BDRip 1080p] [Half OverUnder / Вертикальная анаморфная стереопара] DUB [] bober100 Скачать
4 | 0
3D Фильмы [ 16.61 GB ] Мстители: Война бесконечности в 3Д / Avengers: Infinity War 3D [2018 BDRip 1080p лицензия] OverUnder / Вертикальная стереопара serega768 Скачать
2 | 0


>> Регистрируемся здесь <<






Отзывы и комментарии о схеме читаем и пишем здесь: ---> Отзывы и комментарии о схеме

Новые благодарочки в телеграм довольных пользователей:
скриншот   скриншот   скриншот   скриншот   скриншот
    Дорогой пользователь! Огромная просьба, поблагодарите релизера, оцените раздачу и оставьте свои комментарий, если Вы скачали Мстители: Война бесконечности 3Д через торрент бесплатно! Внесите свою лепту в развитие PiratBit!
    Комментировать посты могут только пользователи прошедшие не сложную регистрацию
    Показать сообщения:    

    Мстители: Война бесконечности 3Д через торрент
    Скачать бесплатно Мстители: Война бесконечности 3Д
    Мстители: Война бесконечности 3Д скачать торрент
    Мстители: Война бесконечности 3Д смотреть онлайн
    Cкачать фильм Мстители: Война бесконечности 3Д бесплатно
    Мстители: Война бесконечности 3Д скачать торрент в хорошем качестве
    Мстители: Война бесконечности 3Д смотреть онлайн бесплатно в хорошем качестве


    Вы не можете начинать темы
    Вы не можете отвечать на сообщения
    Вы не можете редактировать свои сообщения
    Вы не можете удалять свои сообщения
    Вы не можете голосовать в опросах
    Вы не можете прикреплять файлы к сообщениям
    Вы можете скачивать файлы