Ссылка на приватное зеркало всего за 1$. Внимание количество ограничено!!!

iTunes

iTunes

iTunes

1

iTunes

iTunes

iTunes

iTunes

iTunes

30
pack

Новость дня

ВАЖНО

!!Акция!!

Alien_RageХит недели

RePack

Resident Evil 21

ИГРА 18+

pack

RePack

jed

!!Акция!!

Alien_Rage

RePack

fifa19

RePack

Assassins Creed: Odyssey

RePack

NEED FOR SPEED™ PAYBACK

4 сезон

9 сезон

Бесстыжие 9 сезон

Все сериалы

все сериалы на PB.wtf

RePack

FAR CRY 5
  

Моя морячка (Анатолий Эйрамджан) [1990 г., Романтическая комедия, DVDRip-AVC] pb.wtf

Моя морячка через торрент pb.wtf

Размер: 2.34 GB | Добавлен: 1 год 9 мес. назад | Торрент скачан:14 раз
Скачать  

19-08-2018 05:43 Моя морячка Скачать торрент  

Моя морячка
Год выпуска: 1990
Страна: СССР
Жанр: Романтическая комедия
Продолжительность: 01:15:45
Субтитры: Отсутствуют

Режиссер: Анатолий Эйрамджан

rating

В ролях: Людмила Гурченко, Татьяна Васильева, Михаил Державин, Любовь Полищук, Роман Рязанцев, Анастасия Немоляева, Георгий Мартиросян, Роксана Бабаян, Максим Воронков, О.Лукашевич, Сергей Цигаль

Описание: Подружки работают массовиками-затейниками в курортном городке и проявляют необыкновенную изобретательность, чтобы отвадить от сцены некоего Гудкова - автора и исполнителя песни "Моя морячка"...

Качество: DVDRip-AVC
Формат: MKV
Видео кодек: AVC
Аудио кодек: AC3
Видео: AVC, 706x574@753x574 , 25.0fps, 4142 Kbps
Аудио#1: AC3 , 2 ch , 48 kHz , 192 kbps
скриншот   скриншот   скриншот   скриншот  

Уникальный идентификатор : 188173126307363137905405906918063187266 (0x8D90D36C1D0EE314A6FCBEFAE62BA542)
Полное имя : D:Моя морячка_1990-DVDRip-AVC_KORSAR.mkv
Формат : Matroska
Версия формата : Version 2
Размер файла : 2,34 Гбайт
Продолжительность : 1 ч. 15 м.
Общий поток : 4422 Кбит/сек
Дата кодирования : UTC 2018-01-22 00:34:58
Программа кодирования : mkvmerge v5.8.0 ('No Sleep / Pillow') built on Sep 2 2012 15:37:04
Библиотека кодирования : libebml v1.2.3 + libmatroska v1.3.0

Видео
Идентификатор : 1
Формат : AVC
Формат/Информация : Advanced Video Codec
Профиль формата : High@L4.1
Параметр CABAC формата : Да
Параметр RefFrames формата : 14 кадров
Идентификатор кодека : V_MPEG4/ISO/AVC
Продолжительность : 1 ч. 15 м.
Битрейт : 4142 Кбит/сек
Ширина : 706 пикселей
Высота : 574 пикселя
Соотношение сторон : 4:3
Режим частоты кадров : Постоянный
Частота кадров : 25,000 кадров/сек
Цветовое пространство : YUV
Субдискретизация насыщенности : 4:2:0
Битовая глубина : 8 бит
Тип развёртки : Прогрессивная
Бит/(Пиксели*Кадры) : 0.409
Размер потока : 2,19 Гбайт (94%)
Библиотека кодирования : x264 core 148 r2744kMod b97ae06
Настройки программы : cabac=1 / ref=14 / deblock=1:-2:-1 / analyse=0x3:0x133 / me=umh / subme=10 / psy=1 / fade_compensate=0.00 / psy_rd=1.05:0.10 / mixed_ref=1 / me_range=40 / chroma_me=1 / trellis=2 / 8x8dct=1 / cqm=0 / deadzone=21,11 / fast_pskip=1 / chroma_qp_offset=-3 / threads=12 / lookahead_threads=3 / sliced_threads=0 / nr=0 / decimate=1 / interlaced=0 / bluray_compat=0 / constrained_intra=0 / bframes=10 / b_pyramid=2 / b_adapt=2 / b_bias=0 / direct=1 / weightb=1 / open_gop=0 / weightp=2 / keyint=250 / keyint_min=25 / scenecut=40 / intra_refresh=0 / rc_lookahead=40 / rc=crf / mbtree=0 / crf=18.0000 / qcomp=0.63 / qpmin=0 / qpmax=39 / qpstep=4 / vbv_maxrate=50000 / vbv_bufsize=62500 / crf_max=0.0 / nal_hrd=none / filler=0 / ip_ratio=1.40 / pb_ratio=1.30 / aq=2:0.90
Язык : English
Default : Да
Forced : Нет
Цветовой диапазон : Limited
Основные цвета : BT.601 PAL
Характеристики трансфера : BT.470 System B, BT.470 System G
Коэффициенты матрицы : BT.601

Аудио
Идентификатор : 2
Формат : AC-3
Формат/Информация : Audio Coding 3
Параметр Endianness формата : Big
Идентификатор кодека : A_AC3
Продолжительность : 1 ч. 15 м.
Вид битрейта : Постоянный
Битрейт : 192 Кбит/сек
Каналы : 2 канала
Расположение каналов : Front: L R
Частота : 48,0 КГц
Частота кадров : 31,250 кадров/сек (1536 SPF)
Битовая глубина : 16 бит
Метод сжатия : С потерями
Задержка видео : 80 мс.
Размер потока : 104 Мбайт (4%)
Язык : Russian
Default : Да
Forced : Нет

pb.wtf



Скачать Моя морячка через торрент http://pic1.kartinco.top/images/11/jpr8b.jpg Скачать фильм Моя морячка через торрент бесплантно в хорошем качестве Описание: Подружки работают массовиками-затейниками в курортном городке и проявляют необыкновенную изобретательность, чтобы отвадить от ... 10 10 1
Info! Серебряная раздача, засчитывается только 50% скачанного.
Торрент: Зарегистрирован [2018-08-19 05:43] · скачан: 14 раз
Статус: √ проверено
Размер: 2.34 GB
Как cкачать? Как скачать Моя морячка через торрент | qTorrent

28-11-2019 20:33  

Отключить всю рекламу на сайте

    Дорогой пользователь! Огромная просьба, поблагодарите релизера, оцените раздачу и оставьте свои комментарий, если Вы скачали Моя морячка через торрент бесплатно! Внесите свою лепту в развитие PiratBit!
    Комментировать посты могут только пользователи прошедшие не сложную регистрацию
    Показать сообщения:    

    Моя морячка через торрент
    Скачать бесплатно Моя морячка
    Моя морячка скачать торрент
    Моя морячка смотреть онлайн
    Cкачать фильм Моя морячка бесплатно
    Моя морячка скачать торрент в хорошем качестве
    Моя морячка смотреть онлайн бесплатно в хорошем качестве


    Вы не можете начинать темы
    Вы не можете отвечать на сообщения
    Вы не можете редактировать свои сообщения
    Вы не можете удалять свои сообщения
    Вы не можете голосовать в опросах
    Вы не можете прикреплять файлы к сообщениям
    Вы можете скачивать файлы