Ссылка на приватное зеркало всего за 1$. Внимание количество ограничено!!!

OK

1+1

iTunes

мы

OK

1

WEB-DLRip

Джокер

Пифагор

Ведьмак / The Witcher сериал

iTunes

ПШазам

ОК

Оно 2

iTunes

30
pack

Вам бонус

ВАЖНО

!!Акция!!

Alien_RageХит недели

RePack

Resident Evil 21

ИГРА 18+

pack

RePack

jed

RePack

fifa19

RePack

Assassins Creed: Odyssey

RePack

NEED FOR SPEED™ PAYBACK

4 сезон

9 сезон

Бесстыжие 9 сезон

Все сериалы

все сериалы на PB.wtf

RePack

FAR CRY 5
  

Призывая Тьму / A Call to the Dark (John Lance) [2017 г., Ужасы, WEB-DL 720p, Любительский (многоголосый)] [КОЛОБОК] pb.wtf

Призывая Тьму через торрент pb.wtf

Размер: 2.24 GB | Добавлен: 1 год 5 мес. назад | Торрент скачан:80 раз
Скачать  

19-08-2018 12:51 Призывая Тьму Скачать торрент  

Призывая Тьму / A Call to the Dark
Год выпуска: 2017
Страна: США
Жанр: Ужасы
Продолжительность: 00:56:37
Перевод: Любительский (многоголосый) | КОЛОБОК
Субтитры: Отсутствуют

Режиссер: John Lance

rating

В ролях: Glenn Carpenter Jr., Ken Kasten, Rick Daniels, Laura Moyers, Kailynn Barnt, Dianne Paukstelis, Micah Dillinger, Михаэла Лакрамиоара, Grant Conrad, Ron Lammer

Описание: Частный сыщик Армен Бэст берется за расследование дела о пропавшем студенте, но в итоге обнаруживает что его небольшой городок, на берегу Миссури, стал прибежищем культа, желающего призвать на Землю самое ужасное существо из пантеона лавкрафтианских богов. Эта история полня безграничного космического ужаса - настоящий подарок истинным поклонникам творчества Говарда Лавкрафта.

Качество: WEB-DL 720p
Формат: MKV
Видео кодек: AVC
Аудио кодек: AC3
Видео: AVC, 1280x720 , 23.9fps, 5169 Kbps
Аудио#1: AC3 , 2 ch , 48 kHz , 384 kbps
скриншот   скриншот   скриншот   скриншот  

Общее
Уникальный идентификатор : 220842011199108974354521926830734275844 (0xA6249FCDD8818F299B988A3F71B17504)
Полное имя : D:A Call to the Dark.2017.Pk.WEB-DL.72Op.mkv
Формат : Matroska
Версия формата : Version 2
Размер файла : 2,24 Гбайт
Продолжительность : 56 м.
Режим общего битрейта : Переменный
Общий поток : 5666 Кбит/сек
Дата кодирования : UTC 2018-08-18 18:05:46
Программа кодирования : mkvmerge v8.3.0 ('Over the Horizon') 64bit
Библиотека кодирования : libebml v1.3.1 + libmatroska v1.4.2
DURATION : 00:56:37.248000000
NUMBER_OF_FRAMES : 106164
NUMBER_OF_BYTES : 163067904
_STATISTICS_WRITING_APP : mkvmerge v8.3.0 ('Over the Horizon') 64bit
_STATISTICS_WRITING_DATE_UTC : 2018-08-18 18:05:46
_STATISTICS_TAGS : BPS DURATION NUMBER_OF_FRAMES NUMBER_OF_BYTES

Видео
Идентификатор : 1
Формат : AVC
Формат/Информация : Advanced Video Codec
Профиль формата : High@L4.1
Параметр CABAC формата : Да
Параметр ReFrames формата : 4 кадра
Идентификатор кодека : V_MPEG4/ISO/AVC
Продолжительность : 56 м.
Вид битрейта : Переменный
Битрейт : 5169 Кбит/сек
Максимальный битрейт : 6000 Кбит/сек
Ширина : 1280 пикселей
Высота : 720 пикселей
Соотношение сторон : 16:9
Режим частоты кадров : Постоянный
Частота кадров : 23,976 кадра/сек
Стандарт вещания : Component
Цветовое пространство : YUV
Субдискретизация насыщенности : 4:2:0
Битовая глубина : 8 бит
Тип развёртки : Прогрессивная
Бит/(Пиксели*Кадры) : 0.234
Размер потока : 2,04 Гбайт (91%)
Default : Да
Forced : Нет
Основные цвета : BT.709
Характеристики трансфера : BT.709
Коэффициенты матрицы : BT.709

Аудио
Идентификатор : 2
Формат : AC-3
Формат/Информация : Audio Coding 3
Расширение режима : CM (complete main)
Параметр Endianness формата : Big
Идентификатор кодека : A_AC3
Продолжительность : 56 м.
Вид битрейта : Постоянный
Битрейт : 384 Кбит/сек
Каналы : 2 канала
Расположение каналов : Front: L R
Частота : 48,0 КГц
Битовая глубина : 16 бит
Метод сжатия : С потерями
Размер потока : 156 Мбайт (7%)
Default : Да
Forced : Нет

pb.wtf



Скачать Призывая Тьму через торрент http://pic1.kartinco.top/images/11/rk251.jpg Скачать фильм Призывая Тьму через торрент бесплантно в хорошем качестве Описание: Частный сыщик Армен Бэст берется за расследование дела о пропавшем студенте, но в итоге обнаруживает что его небольшой городок, ... 10 10 4
Info! Серебряная раздача, засчитывается только 50% скачанного.
Торрент: Зарегистрирован [2018-08-19 12:51] · скачан: 80 раз
Статус: T временная
Размер: 2.24 GB
Как cкачать? Как скачать Призывая Тьму через торрент | qTorrent

28-11-2019 20:33  

Отключить всю рекламу на сайте

19-08-2018 14:07 Призывая Тьму Скачать торрент  

Это такой сраный треш, что можно просто в ступор войти. Бюджет тыща баксов, актеры биомусор, смотреть невозможно! Ну за труды спасибо)pb.wtf



    Дорогой пользователь! Огромная просьба, поблагодарите релизера, оцените раздачу и оставьте свои комментарий, если Вы скачали Призывая Тьму через торрент бесплатно! Внесите свою лепту в развитие PiratBit!
    Комментировать посты могут только пользователи прошедшие не сложную регистрацию
    Показать сообщения:    

    Призывая Тьму через торрент
    Скачать бесплатно Призывая Тьму
    Призывая Тьму скачать торрент
    Призывая Тьму смотреть онлайн
    Cкачать фильм Призывая Тьму бесплатно
    Призывая Тьму скачать торрент в хорошем качестве
    Призывая Тьму смотреть онлайн бесплатно в хорошем качестве


    Вы не можете начинать темы
    Вы не можете отвечать на сообщения
    Вы не можете редактировать свои сообщения
    Вы не можете удалять свои сообщения
    Вы не можете голосовать в опросах
    Вы не можете прикреплять файлы к сообщениям
    Вы можете скачивать файлы