новый адрес
Ссылка на приватное зеркало всего за 1$. Внимание количество ограничено!!!

iTunes

1+1

iTunes

мы

WEB-DL

1

iTunes

Чернобыль

iTunes

Ральф против интернета

Лицензия

ПШазам

Лицензия

Оно 2

Лицензия

30
pack

Вам бонус

ВАЖНО

!!Акция!!

Alien_RageХит недели

RePack

Resident Evil 21

ИГРА 18+

pack

RePack

jed

!!Акция!!

Alien_Rage

RePack

fifa19

RePack

Assassins Creed: Odyssey

RePack

NEED FOR SPEED™ PAYBACK

3 сезон

9 сезон

Бесстыжие 9 сезон

Все сериалы

все сериалы на PB.wtf

RePack

FAR CRY 5
Ребята, катастрофически не хватает 1900р. для оплаты серверов за Октябрь (всвязи с блокировками трафик упал в 3 раза), 1-2р., выручайте.
  

Псы под прикрытием / Show Dogs (Раджа Госнелл) [2018, комедия, приключения, семейный, BDRip] DUB [iTunes] pb.wtf

Псы под прикрытием через торрент pb.wtf

Размер: 1.45 GB | Добавлен: 1 год 3 мес. назад | Торрент скачан:247 раз
Скачать  

19-08-2018 15:50 Псы под прикрытием Скачать торрент  

Псы под прикрытием / Show Dogs
Год выпуска: 2018
Страна: США, Великобритания
Жанр: комедия, приключения, семейный
Продолжительность: 01:30:45
Перевод: Дублированный | iTunes
Субтитры: Нет

Режиссер: Раджа Госнелл

rating

В ролях:

Уилл Арнетт, Наташа Лионн, Алан Камминг, Стэнли Туччи, РуПол, Делия Шеппард, Шакил О Нил, Лудакрис, Габриэль Иглесиас, Джордин Спаркс

Описание:

Серьезному детективу предстоит работа с необычным напарником - говорящим псом Максом, который не замолкает ни на минуту и фанатеет от рэпа. Вместе они отправятся в Лас-Вегас, где на элитной выставке собак проворачиваются аферы по перепродаже редких животных. И сядут мошенникам на хвост.

Качество: BDRip
Формат: AVI

Видео: Xvid, 720x384, ~1895 kbps, 23,976 fps
Аудио: русский, AC3, 5.1, 48 kHz, 384 kbps | iTunes
скриншот   скриншот   скриншот   скриншот   скриншот  

General
Полное имя : F:TorrentShowDogsBDRip.avi
Формат : AVI
Формат/Информация : Audio Video Interleave
Размер файла : 1.45 GiB
Продолжительность : 1 h 30 min
Общий поток : 2 288 kb/s
Библиотека кодирования : VirtualDub build 35491/release

Video
Идентификатор : 0
Формат : MPEG-4 Visual
Профиль формата : Advanced Simple@L5
Настройки формата : BVOP2 / Custom Matrix
Параметр BVOP формата : 2
Параметр QPel формата : No
Параметр GMC формата : No warppoints
Параметр матрицы формата : Custom
Идентификатор кодека : XVID
Идентификатор кодека/Подсказка : XviD
Продолжительность : 1 h 30 min
Битрейт : 1 895 kb/s
Ширина : 720 pixels
Высота : 384 pixels
Соотношение сторон : 1.85:1
Частота кадров : 23.976 (24000/1001) FPS
Цветовое пространство : YUV
Субдискретизация насыщенности : 4:2:0
Битовая глубина : 8 bits
Тип развёртки : Progressive
Метод сжатия : Lossy
Бит/(Пиксели*Кадры) : 0.286
Размер потока : 1.20 GiB (83%)
Библиотека кодирования : XviD 67

Audio
Идентификатор : 1
Формат : AC-3
Формат/Информация : Audio Coding 3
Идентификатор кодека : 2000
Продолжительность : 1 h 30 min
Вид битрейта : Constant
Битрейт : 384 kb/s
Каналы : 6 channels
Расположение каналов : Front: L C R, Side: L R, LFE
Частота : 48.0 kHz
Частота кадров : 31.250 FPS (1536 SPF)
Битовая глубина : 16 bits
Метод сжатия : Lossy
Размер потока : 249 MiB (17%)
Выравнивание : Aligned on interleaves
Продолжительность промежутка : 42 ms (1.00 video frame)
Время предзагрузки промежутка : 512 ms

pb.wtf



Скачать Псы под прикрытием через торрент http://i103.fastpic.ru/big/2018/0817/0a/c004ba317ebbc49364015e3674ab140a.jpeg Скачать фильм Псы под прикрытием через торрент бесплантно в хорошем качестве Описание: Серьезному детективу предстоит работа с необычным напарником - говорящим псом Максом, который не замолкает ни на минуту и ... 8.9 10 8
Торрент: Зарегистрирован [2018-08-19 15:50] · скачан: 247 раз
Статус: √ проверено
Размер: 1.45 GB
Как cкачать? Как скачать Псы под прикрытием через торрент | qTorrent

% Раздел Тема Автор DL S | L
Фильмы 2018 [DVDrip, WEB-DLRip, HDrip] (DUB, MVO) [ 744 MB ] Псы под прикрытием / Show Dogs [2018 HDRip] bober100 Скачать
2 | 0
Фильмы 2018 [DVDrip, WEB-DLRip, HDrip] (DUB, MVO) [ 2.23 GB ] Псы под прикрытием / Show Dogs [2018 BDRip-AVC] - ExKinoRay Enigma2010 Скачать
3 | 0
Фильмы 2018 [DVDrip, WEB-DLRip, HDrip] (DUB, MVO) [ 1.42 GB ] Псы под прикрытием / Show Dogs [2018 BDRip] - Twi7ter Скачать
2 | 0
Фильмы 2018 [DVDrip, WEB-DLRip, HDrip] (DUB, MVO) [ 1.99 GB ] Псы под прикрытием / Show Dogs [2018 BDRip-AVC] R.G.Generalfilm White Smoke Скачать
1 | 0
Фильмы (Blu-ray, BD-Remux, HDDVD) [ 22.44 GB ] Псы под прикрытием / Show Dogs [2018 BD Remux 1080p] bober100 Скачать
1 | 0
Фильмы 2018 [DVDrip, WEB-DLRip, HDrip] (DUB, MVO) [ 2.17 GB ] Псы под прикрытием / Show Dogs [2018 BDRip-AVC] bober100 Скачать
1 | 0
Фильмы [HD 720p, 1080p] (Хороший звук DUB, MVO) [ 8.89 GB ] Псы под прикрытием / Show Dogs [2018 BDRip 1080p] bober100 Скачать
1 | 0


Последний раз редактировалось: bober100 (2018-08-20 06:39), всего редактировалось 1 раз

28-11-2019 20:33  

Отключить всю рекламу на сайте

19-08-2018 18:09 Псы под прикрытием Скачать торрент  

Тёрнер и Хуч ты ли этоpb.wtf



    Дорогой пользователь! Огромная просьба, поблагодарите релизера, оцените раздачу и оставьте свои комментарий, если Вы скачали Псы под прикрытием через торрент бесплатно! Внесите свою лепту в развитие PiratBit!
    Комментировать посты могут только пользователи прошедшие не сложную регистрацию
    Показать сообщения:    

    Псы под прикрытием через торрент
    Скачать бесплатно Псы под прикрытием
    Псы под прикрытием скачать торрент
    Псы под прикрытием смотреть онлайн
    Cкачать фильм Псы под прикрытием бесплатно
    Псы под прикрытием скачать торрент в хорошем качестве
    Псы под прикрытием смотреть онлайн бесплатно в хорошем качестве


    Вы не можете начинать темы
    Вы не можете отвечать на сообщения
    Вы не можете редактировать свои сообщения
    Вы не можете удалять свои сообщения
    Вы не можете голосовать в опросах
    Вы не можете прикреплять файлы к сообщениям
    Вы можете скачивать файлы