Ссылка на приватное зеркало всего за 1$. Внимание количество ограничено!!!

iTunes

1+1

iTunes

мы

WEB-DL

1

iTunes

Чернобыль

iTunes

Ральф против интернета

Лицензия

ПШазам

Лицензия

Оно 2

Лицензия

30
pack

Вам бонус

ВАЖНО

!!Акция!!

Alien_RageХит недели

RePack

Resident Evil 21

ИГРА 18+

pack

RePack

jed

!!Акция!!

Alien_Rage

RePack

fifa19

RePack

Assassins Creed: Odyssey

RePack

NEED FOR SPEED™ PAYBACK

3 сезон

9 сезон

Бесстыжие 9 сезон

Все сериалы

все сериалы на PB.wtf

RePack

FAR CRY 5
Ребята, катастрофически не хватает 1900р. для оплаты серверов за Октябрь (всвязи с блокировками трафик упал в 3 раза), 1-2р., выручайте.
  

Псы под прикрытием / Show Dogs (Раджа Госнелл) [2018, комедия, приключения, семейный, BDRip-AVC] DUB [iTunes] pb.wtf

Псы под прикрытием через торрент pb.wtf

Размер: 2.17 GB | Добавлен: 1 год 3 мес. назад | Торрент скачан:158 раз
Скачать  

19-08-2018 16:08 Псы под прикрытием Скачать торрент  

Псы под прикрытием / Show Dogs
Год выпуска: 2018
Страна: США, Великобритания
Жанр: комедия, приключения, семейный
Продолжительность: 01:30:45
Перевод: Дублированный | iTunes
Субтитры: английские

Режиссер: Раджа Госнелл

rating

В ролях:

Уилл Арнетт, Наташа Лионн, Алан Камминг, Стэнли Туччи, РуПол, Делия Шеппард, Шакил О Нил, Лудакрис, Габриэль Иглесиас, Джордин Спаркс

Описание:

Серьезному детективу предстоит работа с необычным напарником - говорящим псом Максом, который не замолкает ни на минуту и фанатеет от рэпа. Вместе они отправятся в Лас-Вегас, где на элитной выставке собак проворачиваются аферы по перепродаже редких животных. И сядут мошенникам на хвост.

Качество: BDRip-AVC
Формат: MKV

Видео: MPEG-4 AVC, 1024x554, 2400 kbps, 23,976 fps
Аудио#1: русский, AC3, 5.1, 48 kHz, 384 kbps | iTunes
Аудио#2: английский, AC3, 5.1, 48 kHz, 640 kbps | оригинал
скриншот   скриншот   скриншот   скриншот   скриншот  

General
Уникальный идентификатор : 212520277917165471560295407533389275650 (0x9FE1EAAD0C849D7FB7C362FBF3C46202)
Полное имя : F:TorrentShowDogsBDRipAVC.mkv
Формат : Matroska
Версия формата : Version 4 / Version 2
Размер файла : 2.17 GiB
Продолжительность : 1 h 30 min
Общий поток : 3 423 kb/s
Дата кодирования : UTC 2018-08-18 22:02:17
Программа кодирования : mkvmerge v9.5.0 ('Quiet Fire') 64bit
Библиотека кодирования : libebml v1.3.4 + libmatroska v1.4.5

Video
Идентификатор : 1
Формат : AVC
Формат/Информация : Advanced Video Codec
Профиль формата : High@L4.1
Настройки формата : CABAC / 10 Ref Frames
Параметр CABAC формата : Yes
Параметр RefFrames формата : 10 frames
Идентификатор кодека : V_MPEG4/ISO/AVC
Продолжительность : 1 h 30 min
Битрейт : 2 400 kb/s
Ширина : 1 024 pixels
Высота : 554 pixels
Соотношение сторон : 1.85:1
Режим частоты кадров : Constant
Частота кадров : 23.976 (24000/1001) FPS
Цветовое пространство : YUV
Субдискретизация насыщенности : 4:2:0
Битовая глубина : 8 bits
Тип развёртки : Progressive
Бит/(Пиксели*Кадры) : 0.176
Размер потока : 1.52 GiB (70%)
Библиотека кодирования : x264 core 155 r2901M 7d0ff22
Настройки программы : cabac=1 / ref=10 / deblock=1:-3:-3 / analyse=0x3:0x133 / me=umh / subme=11 / psy=1 / psy_rd=1.00:0.00 / mixed_ref=1 / me_range=48 / chroma_me=1 / trellis=2 / 8x8dct=1 / cqm=0 / deadzone=21,11 / fast_pskip=0 / chroma_qp_offset=-2 / threads=9 / lookahead_threads=2 / sliced_threads=0 / nr=0 / decimate=0 / interlaced=0 / bluray_compat=0 / constrained_intra=0 / bframes=12 / b_pyramid=2 / b_adapt=2 / b_bias=0 / direct=3 / weightb=1 / open_gop=0 / weightp=2 / keyint=240 / keyint_min=3 / scenecut=40 / intra_refresh=0 / rc_lookahead=120 / rc=2pass / mbtree=0 / bitrate=2400 / ratetol=1.0 / qcomp=0.70 / qpmin=0 / qpmax=69 / qpstep=4 / cplxblur=20.0 / qblur=0.5 / vbv_maxrate=50000 / vbv_bufsize=62500 / nal_hrd=none / filler=0 / ip_ratio=1.40 / pb_ratio=1.30 / aq=3:0.80
Язык : English
Default : Yes
Forced : No

Audio #1
Идентификатор : 2
Формат : AC-3
Формат/Информация : Audio Coding 3
Идентификатор кодека : A_AC3
Продолжительность : 1 h 30 min
Вид битрейта : Constant
Битрейт : 384 kb/s
Каналы : 6 channels
Расположение каналов : Front: L C R, Side: L R, LFE
Частота : 48.0 kHz
Частота кадров : 31.250 FPS (1536 SPF)
Битовая глубина : 16 bits
Метод сжатия : Lossy
Размер потока : 249 MiB (11%)
Язык : Russian
Default : Yes
Forced : No

Audio #2
Идентификатор : 3
Формат : AC-3
Формат/Информация : Audio Coding 3
Идентификатор кодека : A_AC3
Продолжительность : 1 h 30 min
Вид битрейта : Constant
Битрейт : 640 kb/s
Каналы : 6 channels
Расположение каналов : Front: L C R, Side: L R, LFE
Частота : 48.0 kHz
Частота кадров : 31.250 FPS (1536 SPF)
Битовая глубина : 16 bits
Метод сжатия : Lossy
Размер потока : 415 MiB (19%)
Язык : English
Default : No
Forced : No

Text
Идентификатор : 4
Формат : UTF-8
Идентификатор кодека : S_TEXT/UTF8
Идентификатор кодека/Информация : UTF-8 Plain Text
Продолжительность : 1 h 24 min
Битрейт : 92 b/s
ElementCount : 1607
Размер потока : 56.8 KiB (0%)
Язык : English
Default : No
Forced : No

Menu
00:00:00.000 : :Chapter 01
00:06:56.666 : :Chapter 02
00:11:53.671 : :Chapter 03
00:15:24.798 : :Chapter 04
00:18:05.417 : :Chapter 05
00:21:21.488 : :Chapter 06
00:26:12.237 : :Chapter 07
00:29:26.514 : :Chapter 08
00:34:33.112 : :Chapter 09
00:40:10.533 : :Chapter 10
00:45:16.880 : :Chapter 11
00:52:45.245 : :Chapter 12
00:56:24.547 : :Chapter 13
01:00:49.354 : :Chapter 14
01:03:03.488 : :Chapter 15
01:08:05.623 : :Chapter 16
01:11:13.477 : :Chapter 17
01:13:22.981 : :Chapter 18
01:19:36.730 : :Chapter 19
01:23:38.513 : :Chapter 20

pb.wtf



Скачать Псы под прикрытием через торрент http://i103.fastpic.ru/big/2018/0817/0a/c004ba317ebbc49364015e3674ab140a.jpeg Скачать фильм Псы под прикрытием через торрент бесплантно в хорошем качестве Описание: Серьезному детективу предстоит работа с необычным напарником - говорящим псом Максом, который не замолкает ни на минуту и ... 8.4 10 10
Info! Золотая раздача, скачанное не засчитывается.
Торрент: Зарегистрирован [2018-08-19 16:08] · скачан: 158 раз
Статус: √ проверено
Размер: 2.17 GB
Как cкачать? Как скачать Псы под прикрытием через торрент | qTorrent

% Раздел Тема Автор DL S | L
Фильмы 2018 [DVDrip, WEB-DLRip, HDrip] (DUB, MVO) [ 744 MB ] Псы под прикрытием / Show Dogs [2018 HDRip] bober100 Скачать
1 | 0
Фильмы 2018 [DVDrip, WEB-DLRip, HDrip] (DUB, MVO) [ 2.23 GB ] Псы под прикрытием / Show Dogs [2018 BDRip-AVC] - ExKinoRay Enigma2010 Скачать
1 | 0
Фильмы 2018 [DVDrip, WEB-DLRip, HDrip] (DUB, MVO) [ 1.42 GB ] Псы под прикрытием / Show Dogs [2018 BDRip] - Twi7ter Скачать
1 | 0
Фильмы 2018 [DVDrip, WEB-DLRip, HDrip] (DUB, MVO) [ 1.99 GB ] Псы под прикрытием / Show Dogs [2018 BDRip-AVC] R.G.Generalfilm White Smoke Скачать
1 | 0
Фильмы (Blu-ray, BD-Remux, HDDVD) [ 22.44 GB ] Псы под прикрытием / Show Dogs [2018 BD Remux 1080p] bober100 Скачать
1 | 0
Фильмы 2018 [DVDrip, WEB-DLRip, HDrip] (DUB, MVO) [ 1.45 GB ] Псы под прикрытием / Show Dogs [2018 BDRip] bober100 Скачать
2 | 0
Фильмы [HD 720p, 1080p] (Хороший звук DUB, MVO) [ 8.89 GB ] Псы под прикрытием / Show Dogs [2018 BDRip 1080p] bober100 Скачать
1 | 0

28-11-2019 20:33  

Отключить всю рекламу на сайте

    Дорогой пользователь! Огромная просьба, поблагодарите релизера, оцените раздачу и оставьте свои комментарий, если Вы скачали Псы под прикрытием через торрент бесплатно! Внесите свою лепту в развитие PiratBit!
    Комментировать посты могут только пользователи прошедшие не сложную регистрацию
    Показать сообщения:    

    Псы под прикрытием через торрент
    Скачать бесплатно Псы под прикрытием
    Псы под прикрытием скачать торрент
    Псы под прикрытием смотреть онлайн
    Cкачать фильм Псы под прикрытием бесплатно
    Псы под прикрытием скачать торрент в хорошем качестве
    Псы под прикрытием смотреть онлайн бесплатно в хорошем качестве


    Вы не можете начинать темы
    Вы не можете отвечать на сообщения
    Вы не можете редактировать свои сообщения
    Вы не можете удалять свои сообщения
    Вы не можете голосовать в опросах
    Вы не можете прикреплять файлы к сообщениям
    Вы можете скачивать файлы