Ссылка на приватное зеркало нашего сайта всего за 1$. Внимание количество ограничено!!!

2 сезон

iTunes

1 сезон

1

iTunes

iTunes

iTunes

1 сезон

RePack

30

ИГРА 18+

pack

ВАЖНО

!!Акция!!

Alien_RageХит недели

RePack

MK11
pack

Забери бонус

RePack

jed

!!Акция!!

Alien_Rage

RePack

fifa19

RePack

Assassins Creed: Odyssey

RePack

NEED FOR SPEED™ PAYBACK

4 сезон

9 сезон

Бесстыжие 9 сезон

Все сериалы

все сериалы на PB.wtf

RePack

FAR CRY 5
  

Прекрасные создания / Сезон 1 / Серии 1-2 из 2 (Максим Субботин) [2018, мелодрама, HDTV 1080p] Не требуется [Русский] R.G.Generalfilm pb.wtf

Прекрасные создания через торрент pb.wtf

Размер: 9.01 GB | Добавлен: 2 года 2 мес. назад | Торрент скачан:46 раз
Скачать  

19-08-2018 17:41 Прекрасные создания Скачать торрент  

Прекрасные создания


Год выпуска: 2018
Страна: Россия
Жанр: мелодрама
Продолжительность: 01:28:11
Перевод: Не требуется [Русский]
Режиссер: Максим Субботин
В ролях:

Юлия Подозерова (Анна), Владислав Шкляев (Виктор), Анастасия Акатова (Ксюша), Нил Кропалов (Слава), Дмитрий Муляр (Олег), Екатерина Малахит (одноклассница), Алёна Козырева (Алиса), Виктор Рябов (адвокат), Алексей Котовщиков (Андрей), Иван Латушко (Даня), Наталья Третьякова (сотрудница ЗАГСа), Владимир Верёвочкин (Владик)
Описание:
Анна и Ксюша - жена и дочь нечистого на руку провинциального миллионера - узнают, что отец их семейства сбежал, скрываясь от полиции. Дом и машины конфискованы, счета заморожены, но женщины придумывают невероятный план: они продают оставшееся имущество и едут в Москву на поиски обеспеченных мужчин в надежде выгодно выйти замуж. Привыкшие к тепличным условиям Анна и Ксения сталкиваются с реальной жизнью, которая оказывается совсем не такой дружелюбной, как они себе представляли. Вчерашние светские львицы вынуждены жить в Подмосковье, устроиться на работу и учиться жить по средствам. Героини упорно ищут лёгкой жизни, а к своему счастью находят любовь.

Качество: HDTV 1080p Запись с
Формат: MKV
Видео кодек: AVC
Аудио кодек: AC3
Видео: AVC, 1920x1080 (16:9), 7050 kbps, 25 fps, 0,136 bpp
Аудио: AC3 / 2.0 / 48 kHz / 192 kbps /
General
Unique ID : 215329196048999154412240446944769307719 (0xA1FEE508406A1B6EA5EF4BC0027D7447)
Complete name : E:\Запись с тв\Prekrasnye sozdaniya 2018.HDTV 1080p.R.G.Generalfilm\Prekrasnye sozdaniya.s01.e01.2018.HDTV 1080p.by.White Smoke.R.G.Generalfilm.mkv
Format : Matroska
Format version : Version 2
File size : 4.45 GiB
Duration : 1 h 28 min
Overall bit rate mode : Constant
Overall bit rate : 7 229 kb/s
Movie name : Prekrasnye sozdaniya.s01.e01.2018.HDTV 1080p.by.White Smoke.R.G.Generalfilm.mkv
Encoded date : UTC 2018-08-19 16:53:30
Writing application : mkvmerge v7.6.0 ('Garden of Dreams') 32bit built on Feb 11 2015 00:18:47
Writing library : libebml v1.3.1 + libmatroska v1.4.2
Cover : Yes
Attachments : cover.jpg

Video
ID : 1
Format : AVC
Format/Info : Advanced Video Codec
Format profile : High@L4.1
Format settings, CABAC : Yes
Format settings, ReFrames : 3 frames
Codec ID : V_MPEG4/ISO/AVC
Duration : 1 h 28 min
Bit rate mode : Constant
Bit rate : 7 051 kb/s
Width : 1 920 pixels
Height : 1 080 pixels
Display aspect ratio : 16:9
Frame rate mode : Constant
Frame rate : 25.000 FPS
Standard : PAL
Color space : YUV
Chroma subsampling : 4:2:0
Bit depth : 8 bits
Scan type : Progressive
Bits/(Pixel*Frame) : 0.136
Stream size : 4.25 GiB (95%)
Default : Yes
Forced : No
Color range : Limited
Color primaries : BT.709
Transfer characteristics : BT.709
Matrix coefficients : BT.709

Audio
ID : 2
Format : AC-3
Format/Info : Audio Coding 3
Mode extension : CM (complete main)
Format settings, Endianness : Big
Codec ID : A_AC3
Duration : 1 h 28 min
Bit rate mode : Constant
Bit rate : 192 kb/s
Channel(s) : 2 channels
Channel positions : Front: L R
Sampling rate : 48.0 kHz
Frame rate : 31.250 FPS (1536 spf)
Compression mode : Lossy
Stream size : 121 MiB (3%)
Default : Yes
Forced : No
pb.wtf



Скачать Прекрасные создания через торрент http://interhit.org/img/2018-05/27/95e0rpzgd7ieqwngygkarjw3v.gif Скачать фильм Прекрасные создания через торрент бесплантно в хорошем качестве Описание: Анна и Ксюша - жена и дочь нечистого на руку провинциального миллионера - узнают, что отец их семейства сбежал, скрываясь от ... 10 10 3
Info! Золотая раздача, скачанное не засчитывается.
Торрент: Зарегистрирован [2018-08-19 17:41] · скачан: 46 раз
Статус: √ проверено
Размер: 9.01 GB
Как cкачать? Как скачать Прекрасные создания через торрент | qTorrent

28-11-2019 20:33  

Отключить всю рекламу на сайте

19-08-2018 17:48 Прекрасные создания Скачать торрент  

мне понравилосьpb.wtf



    Дорогой пользователь! Огромная просьба, поблагодарите релизера, оцените раздачу и оставьте свои комментарий, если Вы скачали Прекрасные создания через торрент бесплатно! Внесите свою лепту в развитие PiratBit!
    Комментировать посты могут только пользователи прошедшие не сложную регистрацию
    Показать сообщения:    

    Прекрасные создания через торрент
    Скачать бесплатно Прекрасные создания
    Прекрасные создания скачать торрент
    Прекрасные создания смотреть онлайн
    Cкачать фильм Прекрасные создания бесплатно
    Прекрасные создания скачать торрент в хорошем качестве
    Прекрасные создания смотреть онлайн бесплатно в хорошем качестве


    Вы не можете начинать темы
    Вы не можете отвечать на сообщения
    Вы не можете редактировать свои сообщения
    Вы не можете удалять свои сообщения
    Вы не можете голосовать в опросах
    Вы не можете прикреплять файлы к сообщениям
    Вы можете скачивать файлы