Ссылка на приватное зеркало нашего сайта всего за 1$. Внимание количество ограничено!!!

2 сезон

iTunes

1 сезон

1

2 сезон

2 сезон

iTunes

1 сезон

RePack

30

Ultimate

ВАЖНО

ИГРА 18+

pack

RePack

MK11
pack

Забери бонус

RePack

jed

!!Акция!!

Alien_Rage

RePack

fifa19

RePack

Assassins Creed: Odyssey

RePack

NEED FOR SPEED™ PAYBACK

4 сезон

9 сезон

Бесстыжие 9 сезон

Все сериалы

все сериалы на PB.wtf

RePack

FAR CRY 5
  

Псы под прикрытием / Show Dogs (Раджа Госнелл) [2018, комедия, приключения, семейный, BD Remux 1080p] DUB [iTunes] pb.wtf

Псы под прикрытием через торрент pb.wtf

Размер: 22.44 GB | Добавлен: 2 года 3 мес. назад | Торрент скачан:22 раза
Скачать  

20-08-2018 06:41 Псы под прикрытием Скачать торрент  

Псы под прикрытием / Show Dogs
Год выпуска: 2018
Страна: США, Великобритания
Жанр: комедия, приключения, семейный
Продолжительность: 01:30:45
Перевод: Дублированный | iTunes
Субтитры: английские

Режиссер: Раджа Госнелл

rating

В ролях:

Уилл Арнетт, Наташа Лионн, Алан Камминг, Стэнли Туччи, РуПол, Делия Шеппард, Шакил О Нил, Лудакрис, Габриэль Иглесиас, Джордин Спаркс

Описание:

Серьезному детективу предстоит работа с необычным напарником - говорящим псом Максом, который не замолкает ни на минуту и фанатеет от рэпа. Вместе они отправятся в Лас-Вегас, где на элитной выставке собак проворачиваются аферы по перепродаже редких животных. И сядут мошенникам на хвост.

Качество: BD Remux 1080p
Формат: MKV

Видео: MPEG-4 AVC, 1920x1080, 32.9 Mbit/s, 23.976 fps
Аудио#1: 48 kHz, AC3, 5.1, 384 Kbps | iTunes | RUS |
Аудио#2: 48 kHz, DTS-HD MA, 5.1, 2152 Kbps | Оригинал | ENG |
скриншот  скриншот  скриншот  скриншот  скриншот  

General
Unique ID : 172731183579826475768958829609951102235 (0x81F2D0DD6B3A57048EFF22C96E23051B)
Complete name : F:Video1Show.Dogs.2018.BDREMUX.1080p.ExKinoRay.mkv
Format : Matroska
Format version : Version 4 / Version 2
File size : 22.4 GiB
Duration : 1 h 30 min
Overall bit rate mode : Variable
Overall bit rate : 35.4 Mb/s
Movie name : Show Dogs 2018 from ExKinoRay
Encoded date : UTC 2018-08-19 14:14:04
Writing application : mkvmerge v7.3.0 ('Nouages') 64bit built on Oct 22 2014 18:53:34
Writing library : libebml v1.3.0 + libmatroska v1.4.1

Video
ID : 1
Format : AVC
Format/Info : Advanced Video Codec
Format profile : High@L4.1
Format settings : CABAC / 4 Ref Frames
Format settings, CABAC : Yes
Format settings, ReFrames : 4 frames
Codec ID : V_MPEG4/ISO/AVC
Duration : 1 h 30 min
Bit rate mode : Variable
Bit rate : 32.9 Mb/s
Maximum bit rate : 35.0 Mb/s
Width : 1 920 pixels
Height : 1 080 pixels
Display aspect ratio : 16:9
Frame rate mode : Constant
Frame rate : 23.976 (24000/1001) FPS
Color space : YUV
Chroma subsampling : 4:2:0
Bit depth : 8 bits
Scan type : Progressive
Bits/(Pixel*Frame) : 0.661
Stream size : 20.8 GiB (93%)
Language : English
Default : Yes
Forced : No

Audio #1
ID : 2
Format : AC-3
Format/Info : Audio Coding 3
Commercial name : Dolby Digital
Codec ID : A_AC3
Duration : 1 h 30 min
Bit rate mode : Constant
Bit rate : 384 kb/s
Channel(s) : 6 channels
Channel positions : Front: L C R, Side: L R, LFE
Sampling rate : 48.0 kHz
Frame rate : 31.250 FPS (1536 SPF)
Bit depth : 16 bits
Compression mode : Lossy
Stream size : 249 MiB (1%)
Title : iTunes
Language : Russian
Service kind : Complete Main
Default : Yes
Forced : Yes

Audio #2
ID : 3
Format : DTS
Format/Info : Digital Theater Systems
Format profile : MA / Core
Codec ID : A_DTS
Duration : 1 h 30 min
Bit rate mode : Variable / Constant
Bit rate : 2 152 kb/s / 1 509 kb/s
Channel(s) : 6 channels
Channel positions : Front: L C R, Side: L R, LFE
Sampling rate : 48.0 kHz
Frame rate : 93.750 FPS (512 SPF)
Bit depth : 24 bits
Compression mode : Lossless / Lossy
Stream size : 1.36 GiB (6%)
Title : Original
Language : English
Default : No
Forced : No

Text
ID : 4
Format : UTF-8
Codec ID : S_TEXT/UTF8
Codec ID/Info : UTF-8 Plain Text
Duration : 1 h 26 min
Bit rate : 125 b/s
Count of elements : 1854
Stream size : 79.1 KiB (0%)
Title : SDH
Language : English
Default : No
Forced : No

Menu
00:00:00.000 : en:00:00:00.000
00:06:56.666 : en:00:06:56.666
00:11:53.671 : en:00:11:53.671
00:15:24.799 : en:00:15:24.799
00:18:05.418 : en:00:18:05.418
00:21:21.489 : en:00:21:21.489
00:26:12.237 : en:00:26:12.237
00:29:26.515 : en:00:29:26.515
00:34:33.113 : en:00:34:33.113
00:40:10.533 : en:00:40:10.533
00:45:16.881 : en:00:45:16.881
00:52:45.245 : en:00:52:45.245
00:56:24.548 : en:00:56:24.548
01:00:49.354 : en:01:00:49.354
01:03:03.488 : en:01:03:03.488
01:08:05.623 : en:01:08:05.623
01:11:13.478 : en:01:11:13.478
01:13:22.982 : en:01:13:22.982
01:19:36.730 : en:01:19:36.730
01:23:38.430 : en:01:23:38.430

pb.wtf



Скачать Псы под прикрытием через торрент http://img11.lostpic.net/2018/08/20/10d6efa400851cc746411f3909a297bc.jpg Скачать фильм Псы под прикрытием через торрент бесплантно в хорошем качестве Описание: Серьезному детективу предстоит работа с необычным напарником - говорящим псом Максом, который не замолкает ни на минуту и ... 7.8 10 4
Торрент: Зарегистрирован [2018-08-20 06:41] · скачан: 22 раз
Статус: √ проверено
Размер: 22.44 GB
Как cкачать? Как скачать Псы под прикрытием через торрент | qTorrent

% Раздел Тема Автор DL S | L
Фильмы 2018 [DVDrip, WEB-DLRip, HDrip] (DUB, MVO) [ 744 MB ] Псы под прикрытием / Show Dogs [2018 HDRip] bober100 Скачать
1 | 0
Фильмы 2018 [DVDrip, WEB-DLRip, HDrip] (DUB, MVO) [ 2.23 GB ] Псы под прикрытием / Show Dogs [2018 BDRip-AVC] - ExKinoRay Enigma2010 Скачать
1 | 0
Фильмы 2018 [DVDrip, WEB-DLRip, HDrip] (DUB, MVO) [ 1.42 GB ] Псы под прикрытием / Show Dogs [2018 BDRip] - Twi7ter Скачать
1 | 0
Фильмы 2018 [DVDrip, WEB-DLRip, HDrip] (DUB, MVO) [ 1.99 GB ] Псы под прикрытием / Show Dogs [2018 BDRip-AVC] R.G.Generalfilm White Smoke Скачать
1 | 0
Фильмы 2018 [DVDrip, WEB-DLRip, HDrip] (DUB, MVO) [ 1.45 GB ] Псы под прикрытием / Show Dogs [2018 BDRip] bober100 Скачать
2 | 0
Фильмы 2018 [DVDrip, WEB-DLRip, HDrip] (DUB, MVO) [ 2.17 GB ] Псы под прикрытием / Show Dogs [2018 BDRip-AVC] bober100 Скачать
1 | 0
Фильмы [HD 720p, 1080p] (Хороший звук DUB, MVO) [ 8.89 GB ] Псы под прикрытием / Show Dogs [2018 BDRip 1080p] bober100 Скачать
2 | 0

28-11-2019 20:33  

Отключить всю рекламу на сайте

    Дорогой пользователь! Огромная просьба, поблагодарите релизера, оцените раздачу и оставьте свои комментарий, если Вы скачали Псы под прикрытием через торрент бесплатно! Внесите свою лепту в развитие PiratBit!
    Комментировать посты могут только пользователи прошедшие не сложную регистрацию
    Показать сообщения:    

    Псы под прикрытием через торрент
    Скачать бесплатно Псы под прикрытием
    Псы под прикрытием скачать торрент
    Псы под прикрытием смотреть онлайн
    Cкачать фильм Псы под прикрытием бесплатно
    Псы под прикрытием скачать торрент в хорошем качестве
    Псы под прикрытием смотреть онлайн бесплатно в хорошем качестве


    Вы не можете начинать темы
    Вы не можете отвечать на сообщения
    Вы не можете редактировать свои сообщения
    Вы не можете удалять свои сообщения
    Вы не можете голосовать в опросах
    Вы не можете прикреплять файлы к сообщениям
    Вы можете скачивать файлы