Ссылка на приватное зеркало нашего сайта всего за 1$. Внимание количество ограничено!!!

2 сезон

iTunes

1 сезон

1

2 сезон

2 сезон

iTunes

1 сезон

RePack

30

Ultimate

ВАЖНО

ИГРА 18+

pack

RePack

MK11
pack

Забери бонус

RePack

jed

!!Акция!!

Alien_Rage

RePack

fifa19

RePack

Assassins Creed: Odyssey

RePack

NEED FOR SPEED™ PAYBACK

4 сезон

9 сезон

Бесстыжие 9 сезон

Все сериалы

все сериалы на PB.wtf

RePack

FAR CRY 5
  

Оно / It (Андрес Мускетти) [2017, ужасы, триллер, драма, BDRemux 1080p] DUB (rus, ukr) + 4xAVO + VO + MVO pb.wtf

Оно через торрент pb.wtf

Размер: 42.34 GB | Добавлен: 2 года 3 мес. назад | Торрент скачан:37 раз
Скачать  

20-08-2018 08:57 Оно Скачать торрент  

Оно / It«А чего боишься ты?»
Год выпуска: 2017
Страна: США, Канада
Жанр: ужасы, триллер, драма
Продолжительность: 02:14:42
Перевод: Дублированный, Любительский многоголосый, авторский, любительский одноголосый
Субтитры: Русские, английские
Режиссер: Андрес Мускетти
В ролях:

Джейден Либерер (Bill Denbrough), Джереми Рэй Тейлор (Ben Hanscom), Софиа Лиллис (Beverly Marsh), Финн Вулфард (Richie Tozier), Чоузен Джейкобс (Mike Hanlon), Джек Дилан Грейзер (Eddie Kaspbrak), Уайатт Олефф (Stanley Uris), Билл Скарсгард (Pennywise), Николас Хэмилтон (Henry Bowers), Джейк Сим (Belch Huggins), Логан Томпсон (Victor Criss), Оуэн Тиг (Patrick Hockstetter)
Описание:
Когда в городке Дерри, штат Мэн, начинают пропадать дети, несколько ребят сталкиваются со своими величайшими страхами и вынуждены помериться силами со злобным клоуном Пеннивайзом, чьи проявления жестокости и список жертв уходят в глубь веков.
Рейтинг:

MPAA: R - Лицам до 17 лет обязательно присутствие взрослого
Качество: BDRemux 1080p
Формат: MKV
Видео: MPEG-4 AVC, 23.8 Mбит/с, 1920x1080, 23.976 кадр/с
Аудио 1: Русский AC3, 6 ch, 448 Кбит/с - Дубляж
Аудио 2: Русский AC3, 6 ch, 640 Кбит/с - Любительский многоголосый (Paradox&Omskbird)
Аудио 3: Русский DTS-HD MA, 8 ch, 5200 kbps, 48 kHz, 24 bit - Авторский (Чадов)
Аудио 4: Русский DTS-HD MA, 8 ch, 5201 kbps, 48 kHz, 24 bit - Авторский (Живов)
Аудио 5: Русский DTS-HD MA, 8 ch, 3919 kbps, 48 kHz, 24 bit - Авторский (Дольский)
Аудио 6: Русский AC3, 6 ch, 640 Кбит/с - Авторский (Чадов)
Аудио 7: Русский AC3, 6 ch, 640 Кбит/с - Авторский (Сербин)
Аудио 8: Русский AC3, 6 ch, 448 Кбит/с - Любительский одноголосый (Солод)
Аудио 9: Английский DTS-HD MA Audio, 8 ch, 48 kHz, 3840 kbps - Оригинал
Аудио 10: Украинский AC3, 2 ch, 192 Кбит/с - Дубляж
Навигация по главам: есть
Общее
Уникальный идентификатор : 209909036813603287615513954054549037118 (0x9DEB028CB7B46768841531930DE0603E)
Полное имя : D:\РЕМУКС!!!!!\Оно. BDRemux.mkv
Формат : Matroska
Версия формата : Version 4 / Version 2
Размер файла : 42,3 Гбайт
Продолжительность : 2 ч. 14 м.
Режим общего битрейта : Переменный
Общий поток : 45,0 Мбит/сек
Название фильма : Оно. BDRemux.thx:SPOMOPS
Дата кодирования : UTC 2018-08-18 14:31:23
Программа кодирования : mkvmerge v8.3.0 ('Over the Horizon') 64bit
Библиотека кодирования : libebml v1.3.1 + libmatroska v1.4.2

Видео
Идентификатор : 1
Формат : AVC
Формат/Информация : Advanced Video Codec
Профиль формата : High@L4.1
Настройки формата : CABAC / 4 Ref Frames
Параметр CABAC формата : Да
Параметр RefFrames формата : 4 кадра
Идентификатор кодека : V_MPEG4/ISO/AVC
Продолжительность : 2 ч. 14 м.
Вид битрейта : Переменный
Битрейт : 23,8 Мбит/сек
Максимальный битрейт : 30,0 Мбит/сек
Ширина : 1920 пикселей
Высота : 1080 пикселей
Соотношение сторон : 16:9
Режим частоты кадров : Постоянный
Частота кадров : 23,976 (24000/1001) кадра/сек
Цветовое пространство : YUV
Субдискретизация насыщенности : 4:2:0
Битовая глубина : 8 бит
Тип развёртки : Прогрессивная
Бит/(Пиксели*Кадры) : 0.478
Размер потока : 22,4 Гбайт (53%)
Заголовок : MPEG-4 AVC, 23758 Кбит/с, 1920x1080
Язык : English
Default : Да
Forced : Нет

Аудио #1
Идентификатор : 2
Формат : AC-3
Формат/Информация : Audio Coding 3
Идентификатор кодека : A_AC3
Продолжительность : 2 ч. 14 м.
Вид битрейта : Постоянный
Битрейт : 448 Кбит/сек
Каналы : 6 каналов
Расположение каналов : Front: L C R, Side: L R, LFE
Частота : 48,0 КГц
Частота кадров : 31,250 кадров/сек (1536 SPF)
Битовая глубина : 16 бит
Метод сжатия : С потерями
Размер потока : 432 Мбайт (1%)
Заголовок : Русский ас3 - Дубляж
Язык : Russian
ServiceKind/String : Complete Main
Default : Да
Forced : Нет

Аудио #2
Идентификатор : 3
Формат : AC-3
Формат/Информация : Audio Coding 3
Идентификатор кодека : A_AC3
Продолжительность : 2 ч. 14 м.
Вид битрейта : Постоянный
Битрейт : 640 Кбит/сек
Каналы : 6 каналов
Расположение каналов : Front: L C R, Side: L R, LFE
Частота : 48,0 КГц
Частота кадров : 31,250 кадров/сек (1536 SPF)
Битовая глубина : 16 бит
Метод сжатия : С потерями
Размер потока : 617 Мбайт (1%)
Заголовок : Русский ас3 - ПМ (Paradox&Omskbird)
Язык : Russian
ServiceKind/String : Complete Main
Default : Нет
Forced : Нет

Аудио #3
Идентификатор : 4
Формат : DTS
Формат/Информация : Digital Theater Systems
Профиль формата : MA / Core
Идентификатор кодека : A_DTS
Продолжительность : 2 ч. 14 м.
Вид битрейта : Переменный / Постоянный
Битрейт : 5200 Кбит/сек / 1509 Кбит/сек
Каналы : 8 каналов / 6 каналов
Расположение каналов : Front: L C R, Side: L R, Back: L R, LFE / Front: L C R, Side: L R, LFE
Частота : 48,0 КГц
Частота кадров : 93,750 кадра/сек (512 SPF)
Битовая глубина : 24 бит
Метод сжатия : Без потерь / Lossy
Размер потока : 4,89 Гбайт (12%)
Заголовок : Русский DTS-HD MA - АП (Чадов)
Язык : Russian
Default : Нет
Forced : Нет

Аудио #4
Идентификатор : 5
Формат : DTS
Формат/Информация : Digital Theater Systems
Профиль формата : MA / Core
Идентификатор кодека : A_DTS
Продолжительность : 2 ч. 14 м.
Вид битрейта : Переменный / Постоянный
Битрейт : 5201 Кбит/сек / 1509 Кбит/сек
Каналы : 8 каналов / 6 каналов
Расположение каналов : Front: L C R, Side: L R, Back: L R, LFE / Front: L C R, Side: L R, LFE
Частота : 48,0 КГц
Частота кадров : 93,750 кадра/сек (512 SPF)
Битовая глубина : 24 бит
Метод сжатия : Без потерь / Lossy
Размер потока : 4,89 Гбайт (12%)
Заголовок : Русский DTS-HD MA - АП (Живов)
Язык : Russian
Default : Нет
Forced : Нет

Аудио #5
Идентификатор : 6
Формат : DTS
Формат/Информация : Digital Theater Systems
Профиль формата : MA / Core
Идентификатор кодека : A_DTS
Продолжительность : 2 ч. 14 м.
Вид битрейта : Переменный / Постоянный
Битрейт : 3919 Кбит/сек / 1509 Кбит/сек
Каналы : 8 каналов / 6 каналов
Расположение каналов : Front: L C R, Side: L R, Back: L R, LFE / Front: L C R, Side: L R, LFE
Частота : 48,0 КГц
Частота кадров : 93,750 кадра/сек (512 SPF)
Битовая глубина : 24 бит
Метод сжатия : Без потерь / Lossy
Размер потока : 3,69 Гбайт (9%)
Заголовок : Русский DTS-HD MA - АП (Дольский)
Язык : Russian
Default : Нет
Forced : Нет

Аудио #6
Идентификатор : 7
Формат : AC-3
Формат/Информация : Audio Coding 3
Идентификатор кодека : A_AC3
Продолжительность : 2 ч. 14 м.
Вид битрейта : Постоянный
Битрейт : 640 Кбит/сек
Каналы : 6 каналов
Расположение каналов : Front: L C R, Side: L R, LFE
Частота : 48,0 КГц
Частота кадров : 31,250 кадров/сек (1536 SPF)
Битовая глубина : 16 бит
Метод сжатия : С потерями
Размер потока : 617 Мбайт (1%)
Заголовок : Русский ас3 - АП (Чадов)
Язык : Russian
ServiceKind/String : Complete Main
Default : Нет
Forced : Нет

Аудио #7
Идентификатор : 8
Формат : AC-3
Формат/Информация : Audio Coding 3
Идентификатор кодека : A_AC3
Продолжительность : 2 ч. 14 м.
Вид битрейта : Постоянный
Битрейт : 640 Кбит/сек
Каналы : 6 каналов
Расположение каналов : Front: L C R, Side: L R, LFE
Частота : 48,0 КГц
Частота кадров : 31,250 кадров/сек (1536 SPF)
Битовая глубина : 16 бит
Метод сжатия : С потерями
Размер потока : 617 Мбайт (1%)
Заголовок : Русский ас3 - АП (Сербин)
Язык : Russian
ServiceKind/String : Complete Main
Default : Нет
Forced : Нет

Аудио #8
Идентификатор : 9
Формат : AC-3
Формат/Информация : Audio Coding 3
Идентификатор кодека : A_AC3
Продолжительность : 2 ч. 14 м.
Вид битрейта : Постоянный
Битрейт : 448 Кбит/сек
Каналы : 6 каналов
Расположение каналов : Front: L C R, Side: L R, LFE
Частота : 48,0 КГц
Частота кадров : 31,250 кадров/сек (1536 SPF)
Битовая глубина : 16 бит
Метод сжатия : С потерями
Размер потока : 432 Мбайт (1%)
Заголовок : Русский ас3 - ЛО (Солод)
Язык : Russian
ServiceKind/String : Complete Main
Default : Нет
Forced : Нет

Аудио #9
Идентификатор : 10
Формат : DTS
Формат/Информация : Digital Theater Systems
Профиль формата : MA / Core
Идентификатор кодека : A_DTS
Продолжительность : 2 ч. 14 м.
Вид битрейта : Переменный / Постоянный
Битрейт : 3840 Кбит/сек / 1509 Кбит/сек
Каналы : 8 каналов / 6 каналов
Расположение каналов : Front: L C R, Side: L R, Back: L R, LFE / Front: L C R, Side: L R, LFE
Частота : 48,0 КГц
Частота кадров : 93,750 кадра/сек (512 SPF)
Битовая глубина : 24 бит
Метод сжатия : Без потерь / Lossy
Размер потока : 3,67 Гбайт (9%)
Заголовок : Английский DTS-HD MA - Оригинал
Язык : English
Default : Нет
Forced : Нет

Аудио #10
Идентификатор : 11
Формат : AC-3
Формат/Информация : Audio Coding 3
Идентификатор кодека : A_AC3
Продолжительность : 2 ч. 14 м.
Вид битрейта : Постоянный
Битрейт : 192 Кбит/сек
Каналы : 2 канала
Расположение каналов : Front: L R
Частота : 48,0 КГц
Частота кадров : 31,250 кадров/сек (1536 SPF)
Битовая глубина : 16 бит
Метод сжатия : С потерями
Размер потока : 185 Мбайт (0%)
Заголовок : Украинский ас3 - Дубляж
Язык : Ukrainian
ServiceKind/String : Complete Main
Default : Нет
Forced : Нет

Текст #1
Идентификатор : 12
Формат : UTF-8
Идентификатор кодека : S_TEXT/UTF8
Идентификатор кодека/Информация : UTF-8 Plain Text
Продолжительность : 2 ч. 8 м.
Битрейт : 2 бит/сек
ElementCount : 48
Размер потока : 2,16 Кбайт (0%)
Заголовок : Русские - Forced
Язык : Russian
Default : Да
Forced : Нет

Текст #2
Идентификатор : 13
Формат : UTF-8
Идентификатор кодека : S_TEXT/UTF8
Идентификатор кодека/Информация : UTF-8 Plain Text
Продолжительность : 2 ч. 8 м.
Битрейт : 64 бит/сек
ElementCount : 1209
Размер потока : 60,7 Кбайт (0%)
Заголовок : Русские - Full
Язык : Russian
Default : Нет
Forced : Нет

Текст #3
Идентификатор : 14
Формат : UTF-8
Идентификатор кодека : S_TEXT/UTF8
Идентификатор кодека/Информация : UTF-8 Plain Text
Продолжительность : 2 ч. 13 м.
Битрейт : 38 бит/сек
ElementCount : 1383
Размер потока : 37,4 Кбайт (0%)
Заголовок : Английские - Full
Язык : English
Default : Нет
Forced : Нет

Текст #4
Идентификатор : 15
Формат : UTF-8
Идентификатор кодека : S_TEXT/UTF8
Идентификатор кодека/Информация : UTF-8 Plain Text
Продолжительность : 2 ч. 14 м.
Битрейт : 50 бит/сек
ElementCount : 1838
Размер потока : 49,6 Кбайт (0%)
Заголовок : Английские - SDH
Язык : English
Default : Нет
Forced : Нет

Текст #5
Идентификатор : 16
Формат : UTF-8
Идентификатор кодека : S_TEXT/UTF8
Идентификатор кодека/Информация : UTF-8 Plain Text
Продолжительность : 2 ч. 14 м.
Битрейт : 86 бит/сек
ElementCount : 1813
Размер потока : 85,6 Кбайт (0%)
Заголовок : Английские - SDH (Colored)
Язык : English
Default : Нет
Forced : Нет

Меню
00:00:00.000 : en:00:00:00.000
00:09:23.646 : en:00:09:23.646
00:18:31.861 : en:00:18:31.861
00:28:26.163 : en:00:28:26.163
00:38:36.981 : en:00:38:36.981
00:48:19.438 : en:00:48:19.438
00:59:30.776 : en:00:59:30.776
01:08:52.795 : en:01:08:52.795
01:16:58.823 : en:01:16:58.823
01:26:52.958 : en:01:26:52.958
01:38:15.306 : en:01:38:15.306
01:48:40.973 : en:01:48:40.973
02:04:07.899 : en:02:04:07.899
02:09:05.655 : en:02:09:05.655
pb.wtf



Скачать Оно через торрент https://b.radikal.ru/b25/1808/da/89b2676966a7.png Скачать фильм Оно через торрент бесплантно в хорошем качестве Описание: Когда в городке Дерри, штат Мэн, начинают пропадать дети, несколько ребят сталкиваются со своими величайшими страхами и вынуждены ... 10 10 2
Info! Золотая раздача, скачанное не засчитывается.
Торрент: Зарегистрирован [2018-08-20 08:57] · скачан: 37 раз
Статус: √ проверено
Размер: 42.34 GB
Как cкачать? Как скачать Оно через торрент | qTorrent

% Раздел Тема Автор DL S | L
Ultra HD (UHD: 2K, 4K, 8K) — видео сверхвысокой чёткости [ 38.44 GB ] Неоновый демон / The Neon Demon [2016 UHD BDRemux 2160p] [SDR] 2xAVO+MVO+ bober100 Скачать
1 | 0
Ultra HD (UHD: 2K, 4K, 8K) — видео сверхвысокой чёткости [ 72.16 GB ] Оно / It [2017 UHD BDRemux 2160p] DUB + MVO + 4xAVO + VO sheker187 Скачать
1 | 0
Ultra HD (UHD: 2K, 4K, 8K) — видео сверхвысокой чёткости [ 61.75 GB ] Оно / It [2017 UHD BDRemux 2160p] DUB + MVO + 3xAVO + VO sheker187 Скачать
1 | 0

28-11-2019 20:33  

Отключить всю рекламу на сайте

    Дорогой пользователь! Огромная просьба, поблагодарите релизера, оцените раздачу и оставьте свои комментарий, если Вы скачали Оно через торрент бесплатно! Внесите свою лепту в развитие PiratBit!
    Комментировать посты могут только пользователи прошедшие не сложную регистрацию
    Показать сообщения:    

    Оно через торрент
    Скачать бесплатно Оно
    Оно скачать торрент
    Оно смотреть онлайн
    Cкачать фильм Оно бесплатно
    Оно скачать торрент в хорошем качестве
    Оно смотреть онлайн бесплатно в хорошем качестве


    Вы не можете начинать темы
    Вы не можете отвечать на сообщения
    Вы не можете редактировать свои сообщения
    Вы не можете удалять свои сообщения
    Вы не можете голосовать в опросах
    Вы не можете прикреплять файлы к сообщениям
    Вы можете скачивать файлы