новый адрес
Ссылка на приватное зеркало всего за 1$. Внимание количество ограничено!!!

iTunes

1+1

iTunes

мы

WEB-DL

1

iTunes

Чернобыль

iTunes

Ральф против интернета

Лицензия

ПШазам

Лицензия

Оно 2

Лицензия

30
pack

Вам бонус

ВАЖНО

!!Акция!!

Alien_RageХит недели

RePack

Resident Evil 21

ИГРА 18+

pack

RePack

jed

!!Акция!!

Alien_Rage

RePack

fifa19

RePack

Assassins Creed: Odyssey

RePack

NEED FOR SPEED™ PAYBACK

3 сезон

9 сезон

Бесстыжие 9 сезон

Все сериалы

все сериалы на PB.wtf

RePack

FAR CRY 5
Ребята, катастрофически не хватает 1900р. для оплаты серверов за Октябрь (всвязи с блокировками трафик упал в 3 раза), 1-2р., выручайте.
  

Клуб миллиардеров / Billionaire Boys Club (Джеймс Кокс) [2018 г., Триллер, драма, биография, WEB-DLRip, Дублированный (Рус-iTunes),(Укр.)] pb.wtf

Клуб миллиардеров через торрент pb.wtf

Раздают: 2 [ 0 KB/s ]
Размер: 1.95 GB | Добавлен: 1 год 3 мес. назад | Торрент скачан:140 раз
Скачать  

20-08-2018 12:03 Клуб миллиардеров Скачать торрент  

Клуб миллиардеров / Billionaire Boys Club
Год выпуска: 2018
Страна: США
Жанр: Триллер, драма, биография
Продолжительность: 01:48:19
Перевод: Дублированный (Рус-iTunes),(Укр.)
Субтитры: Отсутствуют

Режиссер: Джеймс Кокс

rating

В ролях: Тэрон Эджертон, Эмма Робертс, Сьюки Уотерхаус, Кевин Спейси, Кэри Элвис, Билли Лурд, Энсел Элгорт, Джереми Ирвин, Боким Вудбайн, Розанна Аркетт

Описание: Лос-Анджелес начала 1980-х. Компания молодых людей решает провернуть аферу, благоприятный исход которой сулит огромные деньги. Схема обогащения оказывается жизнеспособной и вместе с тем — смертельной.

Качество: WEB-DLRip
Формат: AVI
Видео кодек: XviD
Аудио кодек: AC3
Видео: XviD, 720x304, ~1413 Kbps
Аудио#1: Аудио #1: AC-3, 6 ch, 384 Kbps | Русский дублированный (iTunes)
Аудио#2: Аудио #2: AC-3, 2 ch, 384 Kbps | Украинский дублированный (AAA-Sound)
Аудио#3: Аудио #3: AC-3, 6 ch, 384 Kbps | Английский (Оригинал)
скриншот   скриншот   скриншот   скриншот  

Общее
Полное имя : E:\NNM\Клуб миллиардеров\Billionaire Boys Club 2018 WEB-DLRip.avi
Формат : AVI
Формат/Информация : Audio Video Interleave
Размер файла : 1,95 Гбайт
Продолжительность : 1 ч. 48 м.
Общий поток : 2583 Кбит/сек
Программа кодирования : VirtualDubMod 1.5.10.3 (build 2550/release)
Библиотека кодирования : VirtualDubMod build 2550/release

Видео
Идентификатор : 0
Формат : MPEG-4 Visual
Профиль формата : Advanced Simple@L5
Настройки формата : BVOP2
Параметр BVOP формата : 2
Параметр QPel формата : Нет
Параметр GMC формата : Без точки перехода
Параметр матрицы формата : Default (MPEG)
Идентификатор кодека : XVID
Идентификатор кодека/Подсказка : XviD
Продолжительность : 1 ч. 48 м.
Битрейт : 1413 Кбит/сек
Ширина : 720 пикселей
Высота : 304 пикселя
Соотношение сторон : 2,35:1
Частота кадров : 23,976 (24000/1001) кадра/сек
Цветовое пространство : YUV
Субдискретизация насыщенности : 4:2:0
Битовая глубина : 8 бит
Тип развёртки : Прогрессивная
Метод сжатия : С потерями
Бит/(Пиксели*Кадры) : 0.269
Размер потока : 1,07 Гбайт (55%)
Библиотека кодирования : XviD 1.2.1 (UTC 2008-12-04)

Аудио #1
Идентификатор : 1
Формат : AC-3
Формат/Информация : Audio Coding 3
Идентификатор кодека : 2000
Продолжительность : 1 ч. 48 м.
Вид битрейта : Постоянный
Битрейт : 384 Кбит/сек
Каналы : 6 каналов
Расположение каналов : Front: L C R, Side: L R, LFE
Частота : 48,0 КГц
Частота кадров : 31,250 кадров/сек (1536 SPF)
Битовая глубина : 16 бит
Метод сжатия : С потерями
Размер потока : 297 Мбайт (15%)
Выравнивание : Разделение по промежуткам
Продолжительность промежутка : 42 мс. (1,00 видеокадр)
Время предзагрузки промежутка : 500 мс.
ServiceKind/String : Complete Main

Аудио #2
Идентификатор : 2
Формат : AC-3
Формат/Информация : Audio Coding 3
Идентификатор кодека : 2000
Продолжительность : 1 ч. 48 м.
Вид битрейта : Постоянный
Битрейт : 384 Кбит/сек
Каналы : 2 канала
Расположение каналов : Front: L R
Частота : 48,0 КГц
Частота кадров : 31,250 кадров/сек (1536 SPF)
Битовая глубина : 16 бит
Метод сжатия : С потерями
Размер потока : 297 Мбайт (15%)
Выравнивание : Разделение по промежуткам
Продолжительность промежутка : 42 мс. (1,00 видеокадр)
Время предзагрузки промежутка : 500 мс.
ServiceKind/String : Complete Main

Аудио #3
Идентификатор : 3
Формат : AC-3
Формат/Информация : Audio Coding 3
Идентификатор кодека : 2000
Продолжительность : 1 ч. 48 м.
Вид битрейта : Постоянный
Битрейт : 384 Кбит/сек
Каналы : 6 каналов
Расположение каналов : Front: L C R, Side: L R, LFE
Частота : 48,0 КГц
Частота кадров : 31,250 кадров/сек (1536 SPF)
Битовая глубина : 16 бит
Метод сжатия : С потерями
Размер потока : 298 Мбайт (15%)
Выравнивание : Разделение по промежуткам
Продолжительность промежутка : 42 мс. (1,00 видеокадр)
Время предзагрузки промежутка : 500 мс.
ServiceKind/String : Complete Main

pb.wtf



Скачать Клуб миллиардеров через торрент http://pic1.kartinco.top/images/11/5q1u5.jpg Скачать фильм Клуб миллиардеров через торрент бесплантно в хорошем качестве Описание: Лос-Анджелес начала 1980-х. Компания молодых людей решает провернуть аферу, благоприятный исход которой сулит огромные деньги. ... 7.2 10 6
Торрент: Зарегистрирован [2018-08-20 12:03] · скачан: 140 раз
Статус: √ проверено
Размер: 1.95 GB
Как cкачать? Как скачать Клуб миллиардеров через торрент | qTorrent

% Раздел Тема Автор DL S | L
Фильмы 2018 [DVDrip, WEB-DLRip, HDrip] (DUB, MVO) [ 1.46 GB ] Клуб миллиардеров / Billionaire Boys Club [2018 биография BDRip] - [] Twi7ter Скачать
2 | 0
Фильмы (Blu-ray, BD-Remux, HDDVD) [ 31.87 GB ] Клуб миллиардеров / Billionaire Boys Club [2018 биография Blu-ray 1080p] [Rus Transfer] DUB [] bober100 Скачать
1 | 0
Фильмы 2018 [DVDrip, WEB-DLRip, HDrip] (DUB, MVO) [ 746 MB ] Клуб миллиардеров / Billionaire Boys Club [2018 биография BDRip] DUB [] bober100 Скачать
1 | 0
Фильмы 2018 [DVDrip, WEB-DLRip, HDrip] (DUB, MVO) [ 2 GB ] Клуб миллиардеров / Billionaire Boys Club [2018 биография BDRip-AVC] DUB [] bober100 Скачать
1 | 0
Фильмы 2018 [DVDrip, WEB-DLRip, HDrip] (DUB, MVO) [ 1.46 GB ] Клуб миллиардеров / Billionaire Boys Club [2018 биография BDRip] DUB [ BD RUS] bober100 Скачать
1 | 0
Фильмы 2018 [DVDrip, WEB-DLRip, HDrip] (DUB, MVO) [ 1.75 GB ] Клуб миллиардеров / Billionaire Boys Club [2018 биография WEB-DLRip-AVC] [AMZN Version] MVO [HDRezka Studio] + bober100 Скачать
1 | 0
Фильмы (WEB-DL 720p, 1080p) [ 5.24 GB ] Клуб миллиардеров / Billionaire Boys Club [2018 биография WEB-DL 1080p] [AMZN Version] MVO [HDRezka Studio] + bober100 Скачать
4 | 0

28-11-2019 20:33  

Отключить всю рекламу на сайте

20-08-2018 12:16 Клуб миллиардеров Скачать торрент  

фильм дноpb.wtf



20-08-2018 12:57 Клуб миллиардеров Скачать торрент  

DToretto777 писал(а):

фильм дно

да и фиг с ним-теперь точно смотреть не буду pb.wtf



21-08-2018 12:45 Клуб миллиардеров Скачать торрент  

ну кассовые сборы в США в 1-й день проката составили 136$, видать фильм "Очень" стоящий)))))pb.wtf



    Дорогой пользователь! Огромная просьба, поблагодарите релизера, оцените раздачу и оставьте свои комментарий, если Вы скачали Клуб миллиардеров через торрент бесплатно! Внесите свою лепту в развитие PiratBit!
    Комментировать посты могут только пользователи прошедшие не сложную регистрацию
    Показать сообщения:    

    Клуб миллиардеров через торрент
    Скачать бесплатно Клуб миллиардеров
    Клуб миллиардеров скачать торрент
    Клуб миллиардеров смотреть онлайн
    Cкачать фильм Клуб миллиардеров бесплатно
    Клуб миллиардеров скачать торрент в хорошем качестве
    Клуб миллиардеров смотреть онлайн бесплатно в хорошем качестве


    Вы не можете начинать темы
    Вы не можете отвечать на сообщения
    Вы не можете редактировать свои сообщения
    Вы не можете удалять свои сообщения
    Вы не можете голосовать в опросах
    Вы не можете прикреплять файлы к сообщениям
    Вы можете скачивать файлы