новый адрес
Ссылка на приватное зеркало всего за 1$. Внимание количество ограничено!!!

iTunes

1+1

iTunes

мы

iTunes

1

iTunes

Чернобыль

iTunes

Ральф против интернета

Лицензия

ПШазам

Лицензия

Оно 2

Лицензия

30
pack

Вам бонус

ВАЖНО

!!Акция!!

Alien_RageХит недели

RePack

Resident Evil 21

ИГРА 18+

pack

RePack

jed

!!Акция!!

Alien_Rage

RePack

fifa19

RePack

Assassins Creed: Odyssey

RePack

NEED FOR SPEED™ PAYBACK

3 сезон

9 сезон

Бесстыжие 9 сезон

Все сериалы

все сериалы на PB.wtf

RePack

FAR CRY 5
Ребята, катастрофически не хватает 1900р. для оплаты серверов за Октябрь (всвязи с блокировками трафик упал в 3 раза), 1-2р., выручайте.
  

Книжный клуб / Book Club (Билл Холдермэн) [2018, Комедия, мелодрама, BDRip-AVC] DUB [iTunes] pb.wtf

Книжный клуб через торрент pb.wtf

Размер: 2.17 GB | Добавлен: 1 год 3 мес. назад | Торрент скачан:124 раза
Скачать  

20-08-2018 13:53 Книжный клуб Скачать торрент  

Книжный клуб / Book Club
Год выпуска: 2018
Страна: США
Жанр: Комедия, мелодрама
Продолжительность: 01:43:45
Перевод: Дублированный | iTunes
Субтитры: английские

Режиссер: Билл Холдермэн

rating

В ролях:

Дайан Китон, Джейн Фонда, Кэндис Берген, Мэри Стинберген, Энди Гарсиа, Крэйг Т. Нельсон, Дон Джонсон, Алисия Сильверстоун, Ричард Дрейфусс, Эд Бегли мл.

Описание:

Однажды в руки утонченных интеллектуалок попадает эротический бестселлер «Пятьдесят оттенков серого». С этого момента жизнь калифорнийских леди уже никогда не будет прежней.

Качество: BDRip-AVC
Формат: MKV

Видео: MPEG-4 AVC, 1024x428, 1970 kbps, 23,976 fps
Аудио#1: русский, AC3, 5.1, 48 kHz, 384 kbps | iTunes
Аудио#2: английский, AC3, 5.1, 48 kHz, 640 kbps | оригинал
скриншот   скриншот   скриншот   скриншот  

General
Уникальный идентификатор : 198477919197780432256347347904007119324 (0x955174F0136E5962B9EEC775F5D221DC)
Полное имя : F:TorrentBookClubBDRipAVC.mkv
Формат : Matroska
Версия формата : Version 4 / Version 2
Размер файла : 2.17 GiB
Продолжительность : 1 h 43 min
Общий поток : 2 995 kb/s
Дата кодирования : UTC 2018-08-20 08:19:32
Программа кодирования : mkvmerge v9.5.0 ('Quiet Fire') 64bit
Библиотека кодирования : libebml v1.3.4 + libmatroska v1.4.5

Video
Идентификатор : 1
Формат : AVC
Формат/Информация : Advanced Video Codec
Профиль формата : High@L4.1
Настройки формата : CABAC / 10 Ref Frames
Параметр CABAC формата : Yes
Параметр RefFrames формата : 10 frames
Идентификатор кодека : V_MPEG4/ISO/AVC
Продолжительность : 1 h 43 min
Битрейт : 1 970 kb/s
Ширина : 1 024 pixels
Высота : 428 pixels
Соотношение сторон : 2.40:1
Режим частоты кадров : Constant
Частота кадров : 23.976 (24000/1001) FPS
Цветовое пространство : YUV
Субдискретизация насыщенности : 4:2:0
Битовая глубина : 8 bits
Тип развёртки : Progressive
Бит/(Пиксели*Кадры) : 0.187
Размер потока : 1.43 GiB (66%)
Библиотека кодирования : x264 core 155 r2901M 7d0ff22
Настройки программы : cabac=1 / ref=10 / deblock=1:-3:-3 / analyse=0x3:0x133 / me=umh / subme=11 / psy=1 / psy_rd=1.00:0.00 / mixed_ref=1 / me_range=32 / chroma_me=1 / trellis=2 / 8x8dct=1 / cqm=0 / deadzone=21,11 / fast_pskip=0 / chroma_qp_offset=-2 / threads=5 / lookahead_threads=1 / sliced_threads=0 / nr=0 / decimate=0 / interlaced=0 / bluray_compat=0 / constrained_intra=0 / bframes=10 / b_pyramid=2 / b_adapt=2 / b_bias=0 / direct=3 / weightb=1 / open_gop=0 / weightp=2 / keyint=240 / keyint_min=24 / scenecut=40 / intra_refresh=0 / rc_lookahead=120 / rc=2pass / mbtree=0 / bitrate=1970 / ratetol=1.0 / qcomp=0.70 / qpmin=0 / qpmax=69 / qpstep=4 / cplxblur=20.0 / qblur=0.5 / vbv_maxrate=62500 / vbv_bufsize=78125 / nal_hrd=none / filler=0 / ip_ratio=1.40 / pb_ratio=1.30 / aq=3:0.80
Язык : English
Default : Yes
Forced : No

Audio #1
Идентификатор : 2
Формат : AC-3
Формат/Информация : Audio Coding 3
Идентификатор кодека : A_AC3
Продолжительность : 1 h 43 min
Вид битрейта : Constant
Битрейт : 384 kb/s
Каналы : 6 channels
Расположение каналов : Front: L C R, Side: L R, LFE
Частота : 48.0 kHz
Частота кадров : 31.250 FPS (1536 SPF)
Битовая глубина : 16 bits
Метод сжатия : Lossy
Размер потока : 285 MiB (13%)
Язык : Russian
Default : Yes
Forced : No

Audio #2
Идентификатор : 3
Формат : AC-3
Формат/Информация : Audio Coding 3
Идентификатор кодека : A_AC3
Продолжительность : 1 h 43 min
Вид битрейта : Constant
Битрейт : 640 kb/s
Каналы : 6 channels
Расположение каналов : Front: L C R, Side: L R, LFE
Частота : 48.0 kHz
Частота кадров : 31.250 FPS (1536 SPF)
Битовая глубина : 16 bits
Метод сжатия : Lossy
Размер потока : 475 MiB (21%)
Язык : English
Default : No
Forced : No

Text #1
Идентификатор : 4
Формат : UTF-8
Идентификатор кодека : S_TEXT/UTF8
Идентификатор кодека/Информация : UTF-8 Plain Text
Продолжительность : 1 h 36 min
Битрейт : 81 b/s
ElementCount : 1766
Размер потока : 57.8 KiB (0%)
Язык : English
Default : No
Forced : No

Text #2
Идентификатор : 5
Формат : UTF-8
Идентификатор кодека : S_TEXT/UTF8
Идентификатор кодека/Информация : UTF-8 Plain Text
Продолжительность : 1 h 36 min
Битрейт : 88 b/s
ElementCount : 1974
Размер потока : 62.3 KiB (0%)
Заголовок : SDH
Язык : English
Default : No
Forced : No

Menu
00:00:00.000 : :Chapter 01
00:09:32.488 : :Chapter 02
00:17:58.494 : :Chapter 03
00:28:37.173 : :Chapter 04
00:37:45.429 : :Chapter 05
00:46:38.629 : :Chapter 06
00:53:34.461 : :Chapter 07
01:02:36.586 : :Chapter 08
01:13:06.757 : :Chapter 09
01:21:36.182 : :Chapter 10
01:31:12.633 : :Chapter 11
01:37:14.662 : :Chapter 12
01:43:44.384 : :Chapter 13

pb.wtf



Скачать Книжный клуб через торрент http://i101.fastpic.ru/big/2018/0820/76/5a98965ab106e307facf44c78660e976.jpeg Скачать фильм Книжный клуб через торрент бесплантно в хорошем качестве Описание: Однажды в руки утонченных интеллектуалок попадает эротический бестселлер «Пятьдесят оттенков серого». С этого момента жизнь ... 7.8 10 4
Info! Золотая раздача, скачанное не засчитывается.
Торрент: Зарегистрирован [2018-08-20 13:53] · скачан: 124 раз
Статус: √ проверено
Размер: 2.17 GB
Как cкачать? Как скачать Книжный клуб через торрент | qTorrent

% Раздел Тема Автор DL S | L
Фильмы 2018 [DVDrip, WEB-DLRip, HDrip] (DUB, MVO) [ 1.46 GB ] Книжный клуб / Book Club [2018 BDRip] [Rus Transfer] DUB [ BD RUS] bober100 Скачать
1 | 0
Фильмы [HD 720p, 1080p] (Хороший звук DUB, MVO) [ 7.72 GB ] Книжный клуб / Book Club [2018 BDRip 1080p] [Rus Transfer] DUB [ BD RUS] bober100 Скачать
1 | 0
Фильмы 2018 [DVDrip, WEB-DLRip, HDrip] (DUB, MVO) [ 1.46 GB ] Книжный клуб / Book Club [2018 BDRip] - [] Twi7ter Скачать
1 | 0
Фильмы 2018 [DVDrip, WEB-DLRip, HDrip] (DUB, MVO) [ 745 MB ] Книжный клуб / Book Club [2018 HDRip] bober100 Скачать
1 | 0
Фильмы [HD 720p, 1080p] (Хороший звук DUB, MVO) [ 4.25 GB ] Книжный клуб / Book Club [2018 BDRip 720p] bober100 Скачать
1 | 0
Фильмы (Blu-ray, BD-Remux, HDDVD) [ 27.61 GB ] Книжный клуб / Book Club [2018 BD Remux 1080p] bober100 Скачать
1 | 0
Отключить всю рекламу на сайте
    Дорогой пользователь! Огромная просьба, поблагодарите релизера, оцените раздачу и оставьте свои комментарий, если Вы скачали Книжный клуб через торрент бесплатно! Внесите свою лепту в развитие PiratBit!
    Комментировать посты могут только пользователи прошедшие не сложную регистрацию
    Показать сообщения:    

    Книжный клуб через торрент
    Скачать бесплатно Книжный клуб
    Книжный клуб скачать торрент
    Книжный клуб смотреть онлайн
    Cкачать фильм Книжный клуб бесплатно
    Книжный клуб скачать торрент в хорошем качестве
    Книжный клуб смотреть онлайн бесплатно в хорошем качестве


    Вы не можете начинать темы
    Вы не можете отвечать на сообщения
    Вы не можете редактировать свои сообщения
    Вы не можете удалять свои сообщения
    Вы не можете голосовать в опросах
    Вы не можете прикреплять файлы к сообщениям
    Вы можете скачивать файлы