Ссылка на приватное зеркало всего за 1$. Внимание количество ограничено!!!

OK

1+1

iTunes

мы

OK

1

WEB-DLRip

Джокер

Пифагор

Ведьмак / The Witcher сериал

iTunes

ПШазам

ОК

Оно 2

iTunes

30
pack

Вам бонус

ВАЖНО

!!Акция!!

Alien_RageХит недели

RePack

Resident Evil 21

ИГРА 18+

pack

RePack

jed

RePack

fifa19

RePack

Assassins Creed: Odyssey

RePack

NEED FOR SPEED™ PAYBACK

4 сезон

9 сезон

Бесстыжие 9 сезон

Все сериалы

все сериалы на PB.wtf

RePack

FAR CRY 5
  

Ангел-хранитель / The Guardian Angel (Арто Халонен) [2018, Триллер, WEB-DL 720p] MVO [@MUZOBOZ@] pb.wtf

Ангел-хранитель через торрент pb.wtf

Размер: 3.56 GB | Добавлен: 1 год 5 мес. назад | Торрент скачан:69 раз
Скачать  

20-08-2018 15:07 Ангел-хранитель Скачать торрент  

[size=24]Ангел-хранитель / The Guardian AngelГод выпуска: 2018
Страна: США
Жанр: Триллер
Продолжительность: 01:45:12
Перевод: Любительский (многоголосый) | @MUZOBOZ@
Субтитры: отсутствуют

Режиссер: Арто Халонен

rating

В ролях:

Джош Лукас, Йохан Филип Асбек, Раде Шербеджия, Кристофер Фулфорд, Йоханнес Лассен, Сирон Бьёрн Мелвиль, Памела Тола, Микко Ноусиайнен, Сара Сулей, Рок Цветков

Описание:

Для расследования серии загадочных ограблений банков и возможного заговора бывших нацистских приспешников, полицейскому детективу приходится применить нетрадиционные методы работы и прибегнуть к помощи гипнотизёра с сомнительной репутацией.

Качество: WEB-DL 720p
Формат: MKV

Видео: h.264, 4 460 kb/s, 1280x536
Аудио#1: Русский, (AC3, 2 ch, 384 Кбит/с)
скриншот  скриншот  скриншот  

Общее
Уникальный идентификатор : 173605574499372681668281635067777411792 (0x829B37AA6A73602A80EC6973C7BA6AD0)
Полное имя : D:\The.Guardian.Angel.2018.P.WEB-DL.72Op_KOSHARA.mkv
Формат : Matroska
Версия формата : Version 2
Размер файла : 3,56 Гбайт
Продолжительность : 1 ч. 45 м.
Режим общего битрейта : Переменный
Общий поток : 4846 Кбит/сек
Дата кодирования : UTC 2018-08-17 13:20:22
Программа кодирования : mkvmerge v8.3.0 ('Over the Horizon') 64bit
Библиотека кодирования : libebml v1.3.1 + libmatroska v1.4.2

Видео
Идентификатор : 1
Формат : AVC
Формат/Информация : Advanced Video Codec
Профиль формата : High@L4.1
Параметр CABAC формата : Да
Параметр RefFrames формата : 4 кадра
Идентификатор кодека : V_MPEG4/ISO/AVC
Продолжительность : 1 ч. 45 м.
Вид битрейта : Переменный
Битрейт : 4460 Кбит/сек
Максимальный битрейт : 5000 Кбит/сек
Ширина : 1280 пикселей
Высота : 536 пикселей
Соотношение сторон : 2,40:1
Режим частоты кадров : Постоянный
Частота кадров : 23,976 (24000/1001) кадра/сек
Стандарт вещания : Component
Цветовое пространство : YUV
Субдискретизация насыщенности : 4:2:0
Битовая глубина : 8 бит
Тип развёртки : Прогрессивная
Бит/(Пиксели*Кадры) : 0.265
Размер потока : 3,21 Гбайт (90%)
Default : Да
Forced : Нет
Цветовой диапазон : Limited
Основные цвета : BT.709
Характеристики трансфера : BT.709
Коэффициенты матрицы : BT.709

Аудио
Идентификатор : 2
Формат : AC-3
Формат/Информация : Audio Coding 3
Расширение режима : CM (complete main)
Параметр Endianness формата : Big
Идентификатор кодека : A_AC3
Продолжительность : 1 ч. 45 м.
Вид битрейта : Постоянный
Битрейт : 384 Кбит/сек
Каналы : 2 канала
Расположение каналов : Front: L R
Частота : 48,0 КГц
Частота кадров : 31,250 кадров/сек (1536 spf)
Метод сжатия : С потерями
Размер потока : 289 Мбайт (8%)
Default : Да
Forced : Нет

pb.wtf



Скачать Ангел-хранитель через торрент http://img11.lostpic.net/2018/08/20/da6a57921b2fa9654c20943cf9052d56.jpg Скачать фильм Ангел-хранитель через торрент бесплантно в хорошем качестве Описание: Для расследования серии загадочных ограблений банков и возможного заговора бывших нацистских приспешников, полицейскому детективу ... 8.2 10 5
Торрент: Зарегистрирован [2018-08-20 15:07] · скачан: 69 раз
Статус: T временная
Размер: 3.56 GB
Как cкачать? Как скачать Ангел-хранитель через торрент | qTorrent

% Раздел Тема Автор DL S | L
T Фильмы (мультфильмы) cо спонсором показа (Новинки AVI/MKV) [ 1.24 GB ] Ангел-хранитель / The Guardian Angel [2018 WEB-DLRip Любительский ] oleg8 Скачать
1 | 0

28-11-2019 20:33  

Отключить всю рекламу на сайте

    Дорогой пользователь! Огромная просьба, поблагодарите релизера, оцените раздачу и оставьте свои комментарий, если Вы скачали Ангел-хранитель через торрент бесплатно! Внесите свою лепту в развитие PiratBit!
    Комментировать посты могут только пользователи прошедшие не сложную регистрацию
    Показать сообщения:    

    Ангел-хранитель через торрент
    Скачать бесплатно Ангел-хранитель
    Ангел-хранитель скачать торрент
    Ангел-хранитель смотреть онлайн
    Cкачать фильм Ангел-хранитель бесплатно
    Ангел-хранитель скачать торрент в хорошем качестве
    Ангел-хранитель смотреть онлайн бесплатно в хорошем качестве


    Вы не можете начинать темы
    Вы не можете отвечать на сообщения
    Вы не можете редактировать свои сообщения
    Вы не можете удалять свои сообщения
    Вы не можете голосовать в опросах
    Вы не можете прикреплять файлы к сообщениям
    Вы можете скачивать файлы