Ссылка на приватное зеркало нашего сайта всего за 1$. Внимание количество ограничено!!!

2 сезон

iTunes

1 сезон

1

2 сезон

2 сезон

iTunes

1 сезон

RePack

30

Новинка

ВАЖНО

ИГРА 18+

pack

RePack

MK11
pack

Забери бонус

RePack

jed

!!Акция!!

Alien_Rage

RePack

fifa19

RePack

Assassins Creed: Odyssey

RePack

NEED FOR SPEED™ PAYBACK

4 сезон

9 сезон

Бесстыжие 9 сезон

Все сериалы

все сериалы на PB.wtf

RePack

FAR CRY 5
  

Книжный клуб / Book Club (Билл Холдермэн) [2018, Комедия, мелодрама, BD Remux 1080p] DUB [iTunes] pb.wtf

Книжный клуб через торрент pb.wtf

Размер: 27.61 GB | Добавлен: 2 года 3 мес. назад | Торрент скачан:15 раз
Скачать  

20-08-2018 16:50 Книжный клуб Скачать торрент  

Книжный клуб / Book Club
Год выпуска: 2018
Страна: США
Жанр: Комедия, мелодрама
Продолжительность: 01:43:45
Перевод: Дублированный | iTunes
Субтитры: английские

Режиссер: Билл Холдермэн

rating

В ролях:

Дайан Китон, Джейн Фонда, Кэндис Берген, Мэри Стинберген, Энди Гарсиа, Крэйг Т. Нельсон, Дон Джонсон, Алисия Сильверстоун, Ричард Дрейфусс, Эд Бегли мл.

Описание:

Однажды в руки утонченных интеллектуалок попадает эротический бестселлер «Пятьдесят оттенков серого». С этого момента жизнь калифорнийских леди уже никогда не будет прежней.

Качество: BD Remux 1080p
Формат: MKV

Видео: MPEG-4 AVC, 1920x1080, 34.4 Mbit/s, 23.976 fps
Аудио#1: 48 kHz, AC3, 5.1, 384 Kbps | iTunes | RUS |
Аудио#2: 48 kHz, DTS-HD MA, 5.1, 3281 Kbps | Оригинал | ENG |
скриншот  скриншот  скриншот  скриншот  скриншот  

General
Unique ID : 108623255172076088183262672703141317671 (0x51B813F67315BAECFF032DC3266A0C27)
Complete name : D:Video111Book.Club.2018.BDREMUX.1080p.ExKinoRay.mkv
Format : Matroska
Format version : Version 4 / Version 2
File size : 27.6 GiB
Duration : 1 h 43 min
Overall bit rate mode : Variable
Overall bit rate : 38.1 Mb/s
Movie name : Book Club 2018 from ExKinoRay
Encoded date : UTC 2018-08-20 16:00:29
Writing application : mkvmerge v23.0.0 ('The Bride Said No') 64-bit
Writing library : libebml v1.3.6 + libmatroska v1.4.9

Video
ID : 1
Format : AVC
Format/Info : Advanced Video Codec
Format profile : High@L4.1
Format settings : CABAC / 4 Ref Frames
Format settings, CABAC : Yes
Format settings, ReFrames : 4 frames
Codec ID : V_MPEG4/ISO/AVC
Duration : 1 h 43 min
Bit rate mode : Variable
Bit rate : 34.4 Mb/s
Maximum bit rate : 38.2 Mb/s
Width : 1 920 pixels
Height : 1 080 pixels
Display aspect ratio : 16:9
Frame rate mode : Constant
Frame rate : 23.976 (24000/1001) FPS
Color space : YUV
Chroma subsampling : 4:2:0
Bit depth : 8 bits
Scan type : Progressive
Bits/(Pixel*Frame) : 0.693
Stream size : 25.0 GiB (90%)
Language : English
Default : Yes
Forced : No

Audio #1
ID : 2
Format : AC-3
Format/Info : Audio Coding 3
Commercial name : Dolby Digital
Codec ID : A_AC3
Duration : 1 h 43 min
Bit rate mode : Constant
Bit rate : 384 kb/s
Channel(s) : 6 channels
Channel positions : Front: L C R, Side: L R, LFE
Sampling rate : 48.0 kHz
Frame rate : 31.250 FPS (1536 SPF)
Bit depth : 16 bits
Compression mode : Lossy
Stream size : 285 MiB (1%)
Title : iTunes
Language : Russian
Service kind : Complete Main
Default : Yes
Forced : Yes

Audio #2
ID : 3
Format : DTS
Format/Info : Digital Theater Systems
Format profile : MA / Core
Codec ID : A_DTS
Duration : 1 h 43 min
Bit rate mode : Variable / Constant
Bit rate : 3 281 kb/s / 1 509 kb/s
Channel(s) : 6 channels
Channel positions : Front: L C R, Side: L R, LFE
Sampling rate : 48.0 kHz
Frame rate : 93.750 FPS (512 SPF)
Bit depth : 24 bits
Compression mode : Lossless / Lossy
Stream size : 2.38 GiB (9%)
Title : Original
Language : English
Default : No
Forced : No

Text #1
ID : 4
Format : UTF-8
Codec ID : S_TEXT/UTF8
Codec ID/Info : UTF-8 Plain Text
Duration : 1 h 36 min
Bit rate : 81 b/s
Count of elements : 1766
Stream size : 57.6 KiB (0%)
Title : full
Language : English
Default : No
Forced : No

Text #2
ID : 5
Format : UTF-8
Codec ID : S_TEXT/UTF8
Codec ID/Info : UTF-8 Plain Text
Duration : 1 h 36 min
Bit rate : 105 b/s
Count of elements : 1970
Stream size : 74.8 KiB (0%)
Title : SDH
Language : English
Default : No
Forced : No

Text #3
ID : 6
Format : UTF-8
Codec ID : S_TEXT/UTF8
Codec ID/Info : UTF-8 Plain Text
Duration : 1 h 36 min
Bit rate : 113 b/s
Count of elements : 1970
Stream size : 80.3 KiB (0%)
Title : SDH Colored
Language : English
Default : No
Forced : No

Menu
00:00:00.000 : en:00:00:00.000
00:09:32.572 : en:00:09:32.572
00:17:58.494 : en:00:17:58.494
00:28:37.174 : en:00:28:37.174
00:37:45.430 : en:00:37:45.430
00:46:38.629 : en:00:46:38.629
00:53:34.461 : en:00:53:34.461
01:02:36.586 : en:01:02:36.586
01:13:06.757 : en:01:13:06.757
01:21:36.183 : en:01:21:36.183
01:31:12.634 : en:01:31:12.634
01:37:14.662 : en:01:37:14.662

pb.wtf



Скачать Книжный клуб через торрент http://img11.lostpic.net/2018/08/20/16f56d526cab2d386432bf54f250b859.jpg Скачать фильм Книжный клуб через торрент бесплантно в хорошем качестве Описание: Однажды в руки утонченных интеллектуалок попадает эротический бестселлер «Пятьдесят оттенков серого». С этого момента жизнь ... 10 10 3
Info! Золотая раздача, скачанное не засчитывается.
Торрент: Зарегистрирован [2018-08-20 16:50] · скачан: 15 раз
Статус: √ проверено
Размер: 27.61 GB
Как cкачать? Как скачать Книжный клуб через торрент | qTorrent

% Раздел Тема Автор DL S | L
Фильмы 2018 [DVDrip, WEB-DLRip, HDrip] (DUB, MVO) [ 1.46 GB ] Книжный клуб / Book Club [2018 BDRip] [Rus Transfer] DUB [ BD RUS] bober100 Скачать
2 | 0
Фильмы [HD 720p, 1080p] (Хороший звук DUB, MVO) [ 7.72 GB ] Книжный клуб / Book Club [2018 BDRip 1080p] [Rus Transfer] DUB [ BD RUS] bober100 Скачать
1 | 0
Фильмы 2018 [DVDrip, WEB-DLRip, HDrip] (DUB, MVO) [ 1.46 GB ] Книжный клуб / Book Club [2018 BDRip] - [] Twi7ter Скачать
1 | 0
Фильмы 2018 [DVDrip, WEB-DLRip, HDrip] (DUB, MVO) [ 745 MB ] Книжный клуб / Book Club [2018 HDRip] bober100 Скачать
1 | 0
Фильмы [HD 720p, 1080p] (Хороший звук DUB, MVO) [ 4.25 GB ] Книжный клуб / Book Club [2018 BDRip 720p] bober100 Скачать
1 | 0
Фильмы 2018 [DVDrip, WEB-DLRip, HDrip] (DUB, MVO) [ 2.17 GB ] Книжный клуб / Book Club [2018 BDRip-AVC] bober100 Скачать
1 | 0

28-11-2019 20:33  

Отключить всю рекламу на сайте

    Дорогой пользователь! Огромная просьба, поблагодарите релизера, оцените раздачу и оставьте свои комментарий, если Вы скачали Книжный клуб через торрент бесплатно! Внесите свою лепту в развитие PiratBit!
    Комментировать посты могут только пользователи прошедшие не сложную регистрацию
    Показать сообщения:    

    Книжный клуб через торрент
    Скачать бесплатно Книжный клуб
    Книжный клуб скачать торрент
    Книжный клуб смотреть онлайн
    Cкачать фильм Книжный клуб бесплатно
    Книжный клуб скачать торрент в хорошем качестве
    Книжный клуб смотреть онлайн бесплатно в хорошем качестве


    Вы не можете начинать темы
    Вы не можете отвечать на сообщения
    Вы не можете редактировать свои сообщения
    Вы не можете удалять свои сообщения
    Вы не можете голосовать в опросах
    Вы не можете прикреплять файлы к сообщениям
    Вы можете скачивать файлы