новый адрес
Ссылка на приватное зеркало всего за 1$. Внимание количество ограничено!!!

iTunes

1+1

iTunes

мы

WEB-DL

1

iTunes

Чернобыль

iTunes

Ральф против интернета

Лицензия

ПШазам

Лицензия

Оно 2

Лицензия

30
pack

Вам бонус

ВАЖНО

!!Акция!!

Alien_RageХит недели

RePack

Resident Evil 21

ИГРА 18+

pack

RePack

jed

!!Акция!!

Alien_Rage

RePack

fifa19

RePack

Assassins Creed: Odyssey

RePack

NEED FOR SPEED™ PAYBACK

3 сезон

9 сезон

Бесстыжие 9 сезон

Все сериалы

все сериалы на PB.wtf

RePack

FAR CRY 5
Ребята, катастрофически не хватает 1900р. для оплаты серверов за Октябрь (всвязи с блокировками трафик упал в 3 раза), 1-2р., выручайте.
  

Псы под прикрытием / Show Dogs (Раджа Госнелл) [2018, комедия, приключения, семейный, BDRip-AVC] DUB [iTunes] R.G.Generalfilm pb.wtf

Псы под прикрытием через торрент pb.wtf

Размер: 1.99 GB | Добавлен: 1 год 3 мес. назад | Торрент скачан:94 раза
Скачать  

20-08-2018 17:02 Псы под прикрытием Скачать торрент  

Псы под прикрытием / Show Dogs
««Гав и порядок!»»


Год выпуска: 2018
Страна: Великобритания, США
Жанр: комедия, приключения, семейный

Продолжительность: 01:30:45
Перевод: Дублированный [iTunes]
Режиссер: Раджа Госнелл
В ролях:

Уилл Арнетт (Frank), Лудакрис (Max, озвучка), Наташа Лионн (Mattie), Стэнли Туччи (Philippe, озвучка), Джордин Спаркс (Daisy, озвучка), Габриэль Иглесиас (Sprinkles, озвучка), Шакил О’Нил (Karma, озвучка), Алан Камминг (Dante, озвучка), Омар Чапарро (Señor Gabriel), Андерс Холм (Pigeon 1, озвучка), Кейт Микуччи (Pigeon 2, озвучка), Блейк Андерсон (Pigeon 3, озвучка)
Описание:
Серьезному детективу предстоит работа с необычным напарником - говорящим псом Максом, который не замолкает ни на минуту и фанатеет от рэпа. Вместе они отправятся в Лас-Вегас, где на элитной выставке собак проворачиваются аферы по перепродаже редких животных. И сядут мошенникам на хвост.
Мировая премьера: 10 мая 2018

Качество: BDRip-AVC
Формат: MKV
Видео кодек: AVC
Аудио кодек: AC3
Видео: AVC, 1024x554 (1.85:1), 2758 kbps, 23,976 fps, 0,203 bpp
Аудио: русский / AC3 / 5.1 / 48 kHz / 384 kbps / ||
Навигация по главам: есть
General
Unique ID : 193658515169111494635661170124701257959 (0x91B145F947EF72AF9A48826E37B750E7)
Complete name : E:\Запись с тв\Show.Dogs.2018.BDRip-AVC.Rip.by.White Smoke.R.G.Generalfilm.mkv
Format : Matroska
Format version : Version 2
File size : 1.99 GiB
Duration : 1 h 30 min
Overall bit rate : 3 143 kb/s
Movie name : Show.Dogs.2018.BDRip-AVC.Rip.by.White Smoke.R.G.Generalfilm.mkv
Encoded date : UTC 2018-08-20 16:12:38
Writing application : mkvmerge v7.6.0 ('Garden of Dreams') 32bit built on Feb 11 2015 00:18:47
Writing library : libebml v1.3.1 + libmatroska v1.4.2

Video
ID : 1
Format : AVC
Format/Info : Advanced Video Codec
Format profile : High@L4.1
Format settings, CABAC : Yes
Format settings, ReFrames : 10 frames
Codec ID : V_MPEG4/ISO/AVC
Duration : 1 h 30 min
Bit rate : 2 758 kb/s
Width : 1 024 pixels
Height : 554 pixels
Display aspect ratio : 1.85:1
Frame rate mode : Constant
Frame rate : 23.976 (24000/1001) FPS
Color space : YUV
Chroma subsampling : 4:2:0
Bit depth : 8 bits
Scan type : Progressive
Bits/(Pixel*Frame) : 0.203
Stream size : 1.71 GiB (86%)
Writing library : x264 core 148 r2638 7599210
Encoding settings : cabac=1 / ref=10 / deblock=1:-2:-1 / analyse=0x3:0x113 / me=umh / subme=11 / psy=1 / psy_rd=0.00:0.15 / mixed_ref=1 / me_range=32 / chroma_me=1 / trellis=2 / 8x8dct=1 / cqm=0 / deadzone=21,11 / fast_pskip=0 / chroma_qp_offset=-3 / threads=6 / lookahead_threads=1 / sliced_threads=0 / nr=0 / decimate=0 / interlaced=0 / bluray_compat=0 / constrained_intra=0 / bframes=10 / b_pyramid=2 / b_adapt=2 / b_bias=0 / direct=1 / weightb=1 / open_gop=0 / weightp=2 / keyint=240 / keyint_min=23 / scenecut=40 / intra_refresh=0 / rc_lookahead=40 / rc=2pass / mbtree=1 / bitrate=2758 / ratetol=1.0 / qcomp=0.65 / qpmin=0 / qpmax=69 / qpstep=4 / cplxblur=20.0 / qblur=0.5 / vbv_maxrate=50000 / vbv_bufsize=65500 / nal_hrd=none / filler=0 / ip_ratio=1.40 / aq=1:1.00
Language : English
Default : Yes
Forced : No

Audio
ID : 2
Format : AC-3
Format/Info : Audio Coding 3
Mode extension : CM (complete main)
Format settings, Endianness : Big
Codec ID : A_AC3
Duration : 1 h 30 min
Bit rate mode : Constant
Bit rate : 384 kb/s
Channel(s) : 6 channels
Channel positions : Front: L C R, Side: L R, LFE
Sampling rate : 48.0 kHz
Frame rate : 31.250 FPS (1536 spf)
Compression mode : Lossy
Stream size : 249 MiB (12%)
Title : iTunes
Language : Russian
Default : Yes
Forced : Yes

Menu
00:00:00.000 : en:00:00:00.000
00:06:56.666 : en:00:06:56.666
00:11:53.671 : en:00:11:53.671
00:15:24.799 : en:00:15:24.799
00:18:05.418 : en:00:18:05.418
00:21:21.489 : en:00:21:21.489
00:26:12.237 : en:00:26:12.237
00:29:26.515 : en:00:29:26.515
00:34:33.113 : en:00:34:33.113
00:40:10.533 : en:00:40:10.533
00:45:16.881 : en:00:45:16.881
00:52:45.245 : en:00:52:45.245
00:56:24.548 : en:00:56:24.548
01:00:49.354 : en:01:00:49.354
01:03:03.488 : en:01:03:03.488
01:08:05.623 : en:01:08:05.623
01:11:13.478 : en:01:11:13.478
01:13:22.982 : en:01:13:22.982
01:19:36.730 : en:01:19:36.730
01:23:38.430 : en:01:23:38.430
pb.wtf



Скачать Псы под прикрытием через торрент http://interhit.org/img/2018-05/27/95e0rpzgd7ieqwngygkarjw3v.gif Скачать фильм Псы под прикрытием через торрент бесплантно в хорошем качестве Описание: Серьезному детективу предстоит работа с необычным напарником - говорящим псом Максом, который не замолкает ни на минуту и ... 7 10 3
Info! Золотая раздача, скачанное не засчитывается.
Торрент: Зарегистрирован [2018-08-20 17:02] · скачан: 94 раз
Статус: √ проверено
Размер: 1.99 GB
Как cкачать? Как скачать Псы под прикрытием через торрент | qTorrent

28-11-2019 20:33  

Отключить всю рекламу на сайте

    Дорогой пользователь! Огромная просьба, поблагодарите релизера, оцените раздачу и оставьте свои комментарий, если Вы скачали Псы под прикрытием через торрент бесплатно! Внесите свою лепту в развитие PiratBit!
    Комментировать посты могут только пользователи прошедшие не сложную регистрацию
    Показать сообщения:    

    Псы под прикрытием через торрент
    Скачать бесплатно Псы под прикрытием
    Псы под прикрытием скачать торрент
    Псы под прикрытием смотреть онлайн
    Cкачать фильм Псы под прикрытием бесплатно
    Псы под прикрытием скачать торрент в хорошем качестве
    Псы под прикрытием смотреть онлайн бесплатно в хорошем качестве


    Вы не можете начинать темы
    Вы не можете отвечать на сообщения
    Вы не можете редактировать свои сообщения
    Вы не можете удалять свои сообщения
    Вы не можете голосовать в опросах
    Вы не можете прикреплять файлы к сообщениям
    Вы можете скачивать файлы