Ссылка на приватное зеркало всего за 1$. Внимание количество ограничено!!!

OK

1+1

iTunes

мы

OK

1

WEB-DLRip

Джокер

Пифагор

Ведьмак / The Witcher сериал

iTunes

ПШазам

ОК

Оно 2

iTunes

30
pack

Вам бонус

ВАЖНО

!!Акция!!

Alien_RageХит недели

RePack

Resident Evil 21

ИГРА 18+

pack

RePack

jed

RePack

fifa19

RePack

Assassins Creed: Odyssey

RePack

NEED FOR SPEED™ PAYBACK

4 сезон

9 сезон

Бесстыжие 9 сезон

Все сериалы

все сериалы на PB.wtf

RePack

FAR CRY 5
  

Ловушка для лисы / Fox Trap (Джэми Уэстон) [2016 г., Ужасы, DVDRip, Любительский (многоголосый)] [КОЛОБОК] pb.wtf

Ловушка для лисы через торрент pb.wtf

Размер: 1.36 GB | Добавлен: 1 год 5 мес. назад | Торрент скачан:61 раз
Скачать  

20-08-2018 17:57 Ловушка для лисы Скачать торрент  

Ловушка для лисы / Fox Trap
Год выпуска: 2016
Страна: Великобритания
Жанр: Ужасы
Продолжительность: 01:43:32
Перевод: Любительский (многоголосый) | КОЛОБОК
Субтитры: Отсутствуют

Режиссер: Джэми Уэстон

rating

В ролях: Кейт Грир, Charlene Cooper, Скотт Чэмберс, Клариса Клэйтон, Becca Hirani, Алекс Сойер, Ричард Саммерс-Калверт, Georgina Dugdale, Джулия Эрингер, Therica Wilson-Read

Описание: После страшной аварии с участием компании друзей, девушка осталась инвалидом, пять лет спустя, ответственную группу приглашают в отдаленный усадебный дом в сельской местности для встречи с одноклассниками. Они еще не знают, что на самом деле это коварный план мести, в роли палача выступит кровожадный маньяк в маске.

Качество: DVDRip
Формат: AVI
Видео кодек: XviD
Аудио кодек: AC3
Видео: XviD, 720x304 , 23.9fps, 1620 Kbps
Аудио#1: AC3 , 2 ch , 48 kHz , 256 kbps
скриншот   скриншот   скриншот   скриншот  

Общее
Полное имя : D:Fox Trap.2016.Pk.DVDRip.14OOMB.avi
Формат : AVI
Формат/Информация : Audio Video Interleave
Размер файла : 1,36 Гбайт
Продолжительность : 1 ч. 43 м.
Общий поток : 1886 Кбит/сек
Программа кодирования : VirtualDubMod 1.5.10.2 (build 2540/release)
Библиотека кодирования : VirtualDubMod build 2540/release

Видео
Идентификатор : 0
Формат : MPEG-4 Visual
Профиль формата : Advanced Simple@L5
Параметр BVOP формата : 2
Параметр QPel формата : Нет
Параметр GMC формата : Без точки перехода
Параметр матрицы формата : Выборочная
Идентификатор кодека : XVID
Идентификатор кодека/Подсказка : XviD
Продолжительность : 1 ч. 43 м.
Битрейт : 1620 Кбит/сек
Ширина : 720 пикселей
Высота : 304 пикселя
Соотношение сторон : 2,35:1
Частота кадров : 23,976 кадра/сек
Цветовое пространство : YUV
Субдискретизация насыщенности : 4:2:0
Битовая глубина : 8 бит
Тип развёртки : Прогрессивная
Метод сжатия : С потерями
Бит/(Пиксели*Кадры) : 0.309
Размер потока : 1,17 Гбайт (86%)
Библиотека кодирования : XviD 1.2.1 (UTC 2008-12-04)

Аудио
Идентификатор : 1
Формат : AC-3
Формат/Информация : Audio Coding 3
Расширение режима : CM (complete main)
Параметр Endianness формата : Big
Идентификатор кодека : 2000
Продолжительность : 1 ч. 43 м.
Вид битрейта : Постоянный
Битрейт : 256 Кбит/сек
Каналы : 2 канала
Расположение каналов : Front: L R
Частота : 48,0 КГц
Битовая глубина : 16 бит
Метод сжатия : С потерями
Размер потока : 190 Мбайт (14%)
Выравнивание : Разделение по промежуткам
Продолжительность промежутка : 42 мс. (1,00 видеокадр)
Время предзагрузки промежутка : 500 мс.

pb.wtf



Скачать Ловушка для лисы через торрент http://pic1.kartinco.top/images/11/9yt1h.jpg Скачать фильм Ловушка для лисы через торрент бесплантно в хорошем качестве Описание: После страшной аварии с участием компании друзей, девушка осталась инвалидом, пять лет спустя, ответственную группу приглашают в ... 10 10 6
Торрент: Зарегистрирован [2018-08-20 17:57] · скачан: 61 раз
Статус: T временная
Размер: 1.36 GB
Как cкачать? Как скачать Ловушка для лисы через торрент | qTorrent

28-11-2019 20:33  

Отключить всю рекламу на сайте

    Дорогой пользователь! Огромная просьба, поблагодарите релизера, оцените раздачу и оставьте свои комментарий, если Вы скачали Ловушка для лисы через торрент бесплатно! Внесите свою лепту в развитие PiratBit!
    Комментировать посты могут только пользователи прошедшие не сложную регистрацию
    Показать сообщения:    

    Ловушка для лисы через торрент
    Скачать бесплатно Ловушка для лисы
    Ловушка для лисы скачать торрент
    Ловушка для лисы смотреть онлайн
    Cкачать фильм Ловушка для лисы бесплатно
    Ловушка для лисы скачать торрент в хорошем качестве
    Ловушка для лисы смотреть онлайн бесплатно в хорошем качестве


    Вы не можете начинать темы
    Вы не можете отвечать на сообщения
    Вы не можете редактировать свои сообщения
    Вы не можете удалять свои сообщения
    Вы не можете голосовать в опросах
    Вы не можете прикреплять файлы к сообщениям
    Вы можете скачивать файлы