Ссылка на приватное зеркало всего за 1$. Внимание количество ограничено!!!

OK

1+1

iTunes

мы

OK

1

WEB-DLRip

Джокер

Пифагор

Ведьмак / The Witcher сериал

Лицензия

ПШазам

ОК

Оно 2

iTunes

30
pack

Вам бонус

ВАЖНО

!!Акция!!

Alien_RageХит недели

RePack

Resident Evil 21

ИГРА 18+

pack

RePack

jed

!!Акция!!

Alien_Rage

RePack

fifa19

RePack

Assassins Creed: Odyssey

RePack

NEED FOR SPEED™ PAYBACK

4 сезон

9 сезон

Бесстыжие 9 сезон

Все сериалы

все сериалы на PB.wtf

RePack

FAR CRY 5
  

Кодекс сводника / The Matchmaker's Playbook (Тоска Маск) [2018, Мелодрама, WEB-DL 720p] MVO [Alfaproject] pb.wtf

Кодекс сводника через торрент pb.wtf

Размер: 3.13 GB | Добавлен: 1 год 5 мес. назад | Торрент скачан:54 раза
Скачать  

20-08-2018 18:36 Кодекс сводника Скачать торрент  

Кодекс сводника / The Matchmaker's PlaybookГод выпуска: 2018
Страна: США
Жанр: Мелодрама
Продолжительность: 01:33:11
Перевод: Любительский (многоголосый) | AlphaProject
Субтитры: отсутствуют

Режиссер: Тоска Маск

rating

В ролях:

Ник Бейтман, Кэйтлин Карвер, Тайлер Джонсон, Жюстен Алперт, Трей Такер, Мадлен Вагер, Карсон Найсели, Кристина ДеРоса, Бэйли Джейн Кормэн, Харрисон Грант

Описание:

Парень, похожий на гей-икону восьмидесятых, Джорджа Майкла, пользуется большой популярностью у девушек. Он со своим другом открыл компанию, в которой помогает неуверенным в себе девушкам заполучить парня своей мечты. Но чем же закончится его работа с очередной очаровательной и чистой, как слеза, клиенткой? Вы ни за что не догадаетесь! Хотя, конечно, догадаетесь. Но все равно посмотрите. Это милое кино пропитано сексуальным напряжением и идеально подойдет, чтобы посмотреть его в обнимку с вашим любовным интересом. Досмотрите вы его или нет - в любом случае не пожалеете.

Качество: WEB-DL 720p
Формат: MKV

Видео: h.264, 4 424 kb/s, 1280x720
Аудио#1: Русский, (AC3, 2 ch, 384 Кбит/с)
скриншот  скриншот  скриншот  

Общее
Уникальный идентификатор : 246361761984519530493183918349630669474 (0xB9578CA9229E12798670DC13633D82A2)
Полное имя : D:\The Matchmakers Playbook.2018.Pa.WEB-DL.72Op_KOSHARA.mkv
Формат : Matroska
Версия формата : Version 2
Размер файла : 3,13 Гбайт
Продолжительность : 1 ч. 33 м.
Режим общего битрейта : Переменный
Общий поток : 4810 Кбит/сек
Дата кодирования : UTC 2018-08-17 10:47:55
Программа кодирования : mkvmerge v8.3.0 ('Over the Horizon') 64bit
Библиотека кодирования : libebml v1.3.1 + libmatroska v1.4.2

Видео
Идентификатор : 1
Формат : AVC
Формат/Информация : Advanced Video Codec
Профиль формата : High@L4.1
Параметр CABAC формата : Да
Параметр RefFrames формата : 4 кадра
Идентификатор кодека : V_MPEG4/ISO/AVC
Продолжительность : 1 ч. 33 м.
Вид битрейта : Переменный
Битрейт : 4424 Кбит/сек
Максимальный битрейт : 5000 Кбит/сек
Ширина : 1280 пикселей
Высота : 720 пикселей
Соотношение сторон : 16:9
Режим частоты кадров : Постоянный
Частота кадров : 23,976 (24000/1001) кадра/сек
Стандарт вещания : Component
Цветовое пространство : YUV
Субдискретизация насыщенности : 4:2:0
Битовая глубина : 8 бит
Тип развёртки : Прогрессивная
Бит/(Пиксели*Кадры) : 0.196
Размер потока : 2,82 Гбайт (90%)
Default : Да
Forced : Нет
Цветовой диапазон : Limited
Основные цвета : BT.709
Характеристики трансфера : BT.709
Коэффициенты матрицы : BT.709

Аудио
Идентификатор : 2
Формат : AC-3
Формат/Информация : Audio Coding 3
Расширение режима : CM (complete main)
Параметр Endianness формата : Big
Идентификатор кодека : A_AC3
Продолжительность : 1 ч. 33 м.
Вид битрейта : Постоянный
Битрейт : 384 Кбит/сек
Каналы : 2 канала
Расположение каналов : Front: L R
Частота : 48,0 КГц
Частота кадров : 31,250 кадров/сек (1536 spf)
Метод сжатия : С потерями
Размер потока : 256 Мбайт (8%)
Default : Да
Forced : Нет

pb.wtf



Скачать Кодекс сводника через торрент http://pic1.kartinco.top/images/11/lkdmx.jpg Скачать фильм Кодекс сводника через торрент бесплантно в хорошем качестве Описание: Парень, похожий на гей-икону восьмидесятых, Джорджа Майкла, пользуется большой популярностью у девушек. Он со своим другом открыл ... 10 10 2
Торрент: Зарегистрирован [2018-08-20 18:36] · скачан: 54 раз
Статус: T временная
Размер: 3.13 GB
Как cкачать? Как скачать Кодекс сводника через торрент | qTorrent

28-11-2019 20:33  

Отключить всю рекламу на сайте

    Дорогой пользователь! Огромная просьба, поблагодарите релизера, оцените раздачу и оставьте свои комментарий, если Вы скачали Кодекс сводника через торрент бесплатно! Внесите свою лепту в развитие PiratBit!
    Комментировать посты могут только пользователи прошедшие не сложную регистрацию
    Показать сообщения:    

    Кодекс сводника через торрент
    Скачать бесплатно Кодекс сводника
    Кодекс сводника скачать торрент
    Кодекс сводника смотреть онлайн
    Cкачать фильм Кодекс сводника бесплатно
    Кодекс сводника скачать торрент в хорошем качестве
    Кодекс сводника смотреть онлайн бесплатно в хорошем качестве


    Вы не можете начинать темы
    Вы не можете отвечать на сообщения
    Вы не можете редактировать свои сообщения
    Вы не можете удалять свои сообщения
    Вы не можете голосовать в опросах
    Вы не можете прикреплять файлы к сообщениям
    Вы можете скачивать файлы