Ссылка на приватное зеркало всего за 1$. Внимание количество ограничено!!!

OK

1+1

iTunes

мы

OK

1

WEB-DLRip

Джокер

Пифагор

Ведьмак / The Witcher сериал

iTunes

ПШазам

ОК

Оно 2

iTunes

30
pack

Вам бонус

ВАЖНО

!!Акция!!

Alien_RageХит недели

RePack

Resident Evil 21

ИГРА 18+

pack

RePack

jed

RePack

fifa19

RePack

Assassins Creed: Odyssey

RePack

NEED FOR SPEED™ PAYBACK

4 сезон

9 сезон

Бесстыжие 9 сезон

Все сериалы

все сериалы на PB.wtf

RePack

FAR CRY 5
  

Маменькин сынок / Mommy's Little Boy (Кертис Кроуфорд) [2017, Триллер, WEB-DL 720p] MVO [Alfaproject] pb.wtf

Маменькин сынок через торрент pb.wtf

Размер: 3.12 GB | Добавлен: 1 год 5 мес. назад | Торрент скачан:16 раз
Скачать  

20-08-2018 19:15 Маменькин сынок Скачать торрент  

Маменькин сынок / Mommy's Little BoyГод выпуска: 2017
Страна: Канада
Жанр: Триллер
Продолжительность: 01:32:13
Перевод: Любительский (многоголосый) | AlphaProject
Субтитры: отсутствуют

Режиссер: Кертис Кроуфорд

rating

В ролях:

Бри Уильямсон, Питер ДаКуна, Пол Попович, Себастьян Пижотт, Натали Лисинска, Эллисон Грэхэм, Бриджитт Робинсон, Оден Ларратт, Джейдин Мэлоун, Эдди Гийом

Описание:

Маленькому мальчику приходится принять меры, когда горе его матери грозит погубить их жизни.

Качество: WEB-DL 720p
Формат: MKV

Видео: h.264, 4 457 kb/s, 1280x720
Аудио: Русский, (AC3, 2 ch, 384 Кбит/с)
скриншот  скриншот  скриншот  

Общее
Уникальный идентификатор : 194493848248090701724557321739054290797 (0x9252271305C34670B830C6F496DF176D)
Полное имя : D:\Mommys.Little.Boy.2017.Pa.WEB-DL.72Op_KOSHARA.mkv
Формат : Matroska
Версия формата : Version 2
Размер файла : 3,12 Гбайт
Продолжительность : 1 ч. 32 м.
Режим общего битрейта : Переменный
Общий поток : 4843 Кбит/сек
Дата кодирования : UTC 2018-08-17 09:22:01
Программа кодирования : mkvmerge v8.3.0 ('Over the Horizon') 64bit
Библиотека кодирования : libebml v1.3.1 + libmatroska v1.4.2

Видео
Идентификатор : 1
Формат : AVC
Формат/Информация : Advanced Video Codec
Профиль формата : High@L4.1
Параметр CABAC формата : Да
Параметр RefFrames формата : 4 кадра
Идентификатор кодека : V_MPEG4/ISO/AVC
Продолжительность : 1 ч. 32 м.
Вид битрейта : Переменный
Битрейт : 4457 Кбит/сек
Максимальный битрейт : 5000 Кбит/сек
Ширина : 1280 пикселей
Высота : 720 пикселей
Соотношение сторон : 16:9
Режим частоты кадров : Постоянный
Частота кадров : 23,976 (24000/1001) кадра/сек
Стандарт вещания : Component
Цветовое пространство : YUV
Субдискретизация насыщенности : 4:2:0
Битовая глубина : 8 бит
Тип развёртки : Прогрессивная
Бит/(Пиксели*Кадры) : 0.197
Размер потока : 2,81 Гбайт (90%)
Default : Да
Forced : Нет
Цветовой диапазон : Limited
Основные цвета : BT.709
Характеристики трансфера : BT.709
Коэффициенты матрицы : BT.709

Аудио
Идентификатор : 2
Формат : AC-3
Формат/Информация : Audio Coding 3
Расширение режима : CM (complete main)
Параметр Endianness формата : Big
Идентификатор кодека : A_AC3
Продолжительность : 1 ч. 32 м.
Вид битрейта : Постоянный
Битрейт : 384 Кбит/сек
Каналы : 2 канала
Расположение каналов : Front: L R
Частота : 48,0 КГц
Частота кадров : 31,250 кадров/сек (1536 spf)
Метод сжатия : С потерями
Размер потока : 253 Мбайт (8%)
Default : Да
Forced : Нет

pb.wtf



Скачать Маменькин сынок через торрент http://img11.lostpic.net/2018/08/20/ff015b42f9c2f75d2164902835461d38.jpg Скачать фильм Маменькин сынок через торрент бесплантно в хорошем качестве Описание: Маленькому мальчику приходится принять меры, когда горе его матери грозит погубить их ... 10 10 3
Торрент: Зарегистрирован [2018-08-20 19:15] · скачан: 16 раз
Статус: T временная
Размер: 3.12 GB
Как cкачать? Как скачать Маменькин сынок через торрент | qTorrent

28-11-2019 20:33  

Отключить всю рекламу на сайте

    Дорогой пользователь! Огромная просьба, поблагодарите релизера, оцените раздачу и оставьте свои комментарий, если Вы скачали Маменькин сынок через торрент бесплатно! Внесите свою лепту в развитие PiratBit!
    Комментировать посты могут только пользователи прошедшие не сложную регистрацию
    Показать сообщения:    

    Маменькин сынок через торрент
    Скачать бесплатно Маменькин сынок
    Маменькин сынок скачать торрент
    Маменькин сынок смотреть онлайн
    Cкачать фильм Маменькин сынок бесплатно
    Маменькин сынок скачать торрент в хорошем качестве
    Маменькин сынок смотреть онлайн бесплатно в хорошем качестве


    Вы не можете начинать темы
    Вы не можете отвечать на сообщения
    Вы не можете редактировать свои сообщения
    Вы не можете удалять свои сообщения
    Вы не можете голосовать в опросах
    Вы не можете прикреплять файлы к сообщениям
    Вы можете скачивать файлы