Ссылка на приватное зеркало нашего сайта всего за 1$. Внимание количество ограничено!!!

2 сезон

iTunes

1 сезон

1

2 сезон

2 сезон

iTunes

1 сезон

RePack

30

Новинка

ВАЖНО

ИГРА 18+

pack

RePack

MK11
pack

Забери бонус

RePack

jed

!!Акция!!

Alien_Rage

RePack

fifa19

RePack

Assassins Creed: Odyssey

RePack

NEED FOR SPEED™ PAYBACK

4 сезон

9 сезон

Бесстыжие 9 сезон

Все сериалы

все сериалы на PB.wtf

RePack

FAR CRY 5
  

Ложа 49 / Lodge 49 / Сезон: 1 / Серии: 1-10 из 10 (Рэндолл Айнхорн, Триша Брок, Джейк Шрейер) [2018, Драма, комедия, WEB-DL 720p] MVO [Jaskier] pb.wtf

Ложа 49 через торрент pb.wtf

Размер: 12.57 GB | Добавлен: 2 года 3 мес. назад | Торрент скачан:12 раз
Скачать  

20-08-2018 19:22 Ложа 49 Скачать торрент  

Ложа 49 / Lodge 49

Год выпуска: 2018
Страна: США
Жанр: Драма, комедия
Продолжительность: ~ 00:44:00
Перевод: Профессиональный (многоголосый закадровый) | Jaskier
Субтитры: отсутствуют

Режиссёр: Рэндолл Айнхорн, Триша Брок, Джейк Шрейер

В ролях:

Уайатт Рассел, Брент Дженнингс, Соня Кэссиди, Линда Эмонд, Дэвид Паскуэзи, Эрик Аллан Крамер, Авис-Мари Барнс, Джимми Гонсалес, Нджема Уильямс, Андреа Майуро

Описание:

Каким бы сильным в физическом и моральном плане не был человек, в его жизни наступают такие тяжелые моменты, когда необходимо забыться и отдаться какому-нибудь увлечению. Для главного героя по имени Шон, таким увлечением стал водный серфинг. Если повседневные заботы и хлопоты совсем достали, то он брал доску и отправлялся на встречу к волнам. Там мужчина выполнял различного рода трюки и стал далеко не любителем в этом хобби. Однако вскоре случается нечто непоправимое - умирает один из его родителей. Это стало ударом ниже пояса. Казалось что даже серфинг не сможет спасти главного персонажа от негативных мыслей и боли скорби. В этот момент Шон и заводит свое случайное знакомство с неким братством "Ложа сорок девять". Теперь есть хоть какая-то надежда на восстановление душевного равновесия.



Качество: WEB-DL 720p
Формат: MKV

Видео: X264, ~ 2600 kbps, 1280x720 (16:9), 23.976 fps
Аудио 1: AC3, 48,0 КГц, 6 ch, 384 kbps - Rus
Аудио 2: AC3, 48,0 КГц, 6 ch, 384 kbps - Eng


Реклама: аудио, два раза в начале и в конце по 13 секунд
Общее
Уникальный идентификатор                 : 207739709522490779940045199080432174873 (0x9C493674DE41F5ABAD9349B28B658719)
Формат                                   : Matroska
Версия формата                           : Version 2
Размер файла                             : 1,27 Гбайт
Продолжительность                        : 51 м.
Режим общего битрейта                    : Переменный
Общий поток                              : 3535 Кбит/сек
Дата кодирования                         : UTC 2018-08-20 16:07:10
Программа кодирования                    : mkvmerge v7.8.0 ('River Man') 32bit built on Apr  3 2015 12:11:22
Библиотека кодирования                   : libebml v1.3.1 + libmatroska v1.4.2

Видео
Идентификатор                            : 1
Формат                                   : AVC
Формат/Информация                        : Advanced Video Codec
Профиль формата                          : High@L3.1
Параметр CABAC формата                   : Да
Параметр ReFrames формата                : 5 кадров
Идентификатор кодека                     : V_MPEG4/ISO/AVC
Продолжительность                        : 51 м.
Вид битрейта                             : Переменный
Битрейт                                  : 2696 Кбит/сек
Максимальный битрейт                     : 4500 Кбит/сек
Ширина                                   : 1280 пикселей
Высота                                   : 720 пикселей
Соотношение сторон                       : 16:9
Режим частоты кадров                     : Постоянный
Частота кадров                           : 23,976 (24000/1001) кадра/сек
Цветовое пространство                    : YUV
Субдискретизация насыщенности            : 4:2:0
Битовая глубина                          : 8 бит
Тип развёртки                            : Прогрессивная
Бит/(Пиксели*Кадры)                      : 0.122
Размер потока                            : 991 Мбайт (76%)
Язык                                     : English
Default                                  : Да
Forced                                   : Нет
Цветовой диапазон                        : Limited
Основные цвета                           : BT.709
Характеристики трансфера                 : BT.709
Коэффициенты матрицы                     : BT.709

Аудио #1
Идентификатор                            : 2
Формат                                   : AC-3
Формат/Информация                        : Audio Coding 3
Расширение режима                        : CM (complete main)
Параметр Endianness формата              : Big
Идентификатор кодека                     : A_AC3
Продолжительность                        : 51 м.
Вид битрейта                             : Постоянный
Битрейт                                  : 384 Кбит/сек
Каналы                                   : 6 каналов
Расположение каналов                     : Front: L C R, Side: L R, LFE
Частота                                  : 48,0 КГц
Частота кадров                           : 31,250 кадров/сек (1536 spf)
Метод сжатия                             : С потерями
Размер потока                            : 141 Мбайт (11%)
Заголовок                                : Jaskier
Язык                                     : Russian
Default                                  : Да
Forced                                   : Нет

Аудио #2
Идентификатор                            : 3
Формат                                   : AC-3
Формат/Информация                        : Audio Coding 3
Расширение режима                        : CM (complete main)
Параметр Endianness формата              : Big
Идентификатор кодека                     : A_AC3
Продолжительность                        : 51 м.
Вид битрейта                             : Постоянный
Битрейт                                  : 384 Кбит/сек
Каналы                                   : 6 каналов
Расположение каналов                     : Front: L C R, Side: L R, LFE
Частота                                  : 48,0 КГц
Частота кадров                           : 31,250 кадров/сек (1536 spf)
Метод сжатия                             : С потерями
Размер потока                            : 141 Мбайт (11%)
Язык                                     : English
Default                                  : Нет
Forced                                   : Нет
скриншот  скриншот  скриншот  
pb.wtf



Скачать Ложа 49 через торрент http://i103.fastpic.ru/big/2018/0820/af/d9b38dbe989421e0f1e2fdb6b18d38af.png Скачать фильм Ложа 49 через торрент бесплантно в хорошем качестве Описание: Каким бы сильным в физическом и моральном плане не был человек, в его жизни наступают такие тяжелые моменты, когда необходимо ... 10 10 4
Торрент: Зарегистрирован [2018-08-20 19:22] · скачан: 12 раз
Статус: √ проверено
Размер: 12.57 GB
Как cкачать? Как скачать Ложа 49 через торрент | qTorrent

% Раздел Тема Автор DL S | L
Зарубежные сериалы [ 39.38 GB ] Ложа 49 / Lodge 49 / Сезон: 1 / Серии: 1-10 из 10 [2018 WEB-DL 1080p] MVO [TVShows] bober100 Скачать
1 | 0
Зарубежные сериалы [ 13.65 GB ] Ложа 49 / Lodge 49 / Сезон: 1 / Серии: 1-10 из 10 [2018 WEB-DL 720p] MVO [TVShows] bober100 Скачать
1 | 0
Зарубежные сериалы [ 17.91 GB ] Ложа 49 / Lodge 49 / Сезон: 2 / Серии: 1-10 из 10 [2019 WEB-DL 1080p] [MVO] killermax2013 Скачать
1 | 0
Зарубежные сериалы [ 5.42 GB ] Ложа 49 / Lodge 49 / Сезон: 1 / Серии: 1-10 из 10 [2018 WEB-DLRip] MVO [Jaskier] bober100 Скачать
1 | 0
Зарубежные сериалы [ 5.66 GB ] Ложа 49 / Lodge 49 / Сезон: 1 / Серии: 1-10 из 10 [2018 WEB-DLRip] MVO [NewStudio] bober100 Скачать
1 | 0

28-11-2019 20:33  

Отключить всю рекламу на сайте

21-08-2018 13:04 Ложа 49 Скачать торрент  

Да как так-то, а я половину от ньюсов , вторую от идеи посмотрел, а тут яскерчик есть.pb.wtf



    Дорогой пользователь! Огромная просьба, поблагодарите релизера, оцените раздачу и оставьте свои комментарий, если Вы скачали Ложа 49 через торрент бесплатно! Внесите свою лепту в развитие PiratBit!
    Комментировать посты могут только пользователи прошедшие не сложную регистрацию
    Показать сообщения:    

    Ложа 49 через торрент
    Скачать бесплатно Ложа 49
    Ложа 49 скачать торрент
    Ложа 49 смотреть онлайн
    Cкачать фильм Ложа 49 бесплатно
    Ложа 49 скачать торрент в хорошем качестве
    Ложа 49 смотреть онлайн бесплатно в хорошем качестве


    Вы не можете начинать темы
    Вы не можете отвечать на сообщения
    Вы не можете редактировать свои сообщения
    Вы не можете удалять свои сообщения
    Вы не можете голосовать в опросах
    Вы не можете прикреплять файлы к сообщениям
    Вы можете скачивать файлы