Ссылка на приватное зеркало всего за 1$. Внимание количество ограничено!!!

OK

1+1

iTunes

мы

OK

1

WEB-DLRip

Джокер

Пифагор

Ведьмак / The Witcher сериал

iTunes

ПШазам

ОК

Оно 2

iTunes

30
pack

Вам бонус

ВАЖНО

!!Акция!!

Alien_RageХит недели

RePack

Resident Evil 21

ИГРА 18+

pack

RePack

jed

RePack

fifa19

RePack

Assassins Creed: Odyssey

RePack

NEED FOR SPEED™ PAYBACK

4 сезон

9 сезон

Бесстыжие 9 сезон

Все сериалы

все сериалы на PB.wtf

RePack

FAR CRY 5
  

Её жизнь – не ошибка / Kanojo no jinsei wa machigaijanai (Рюити Хироки) [2017, Драма, BDRip 720p] MVO ["Синема УС"] pb.wtf

Её жизнь – не ошибка через торрент pb.wtf

Размер: 5.57 GB | Добавлен: 1 год 5 мес. назад | Торрент скачан:57 раз
Скачать  

20-08-2018 19:50 Её жизнь – не ошибка Скачать торрент  

Её жизнь – не ошибка / Kanojo no jinsei wa machigaijanai
Год выпуска: 2017
Страна: Япония
Жанр: Драма
Продолжительность: 02:03:43
Перевод: Любительский (многоголосый) | "Синема УС"
Субтитры: отсутствуют

Режиссер: Рюити Хироки

rating

В ролях:

Тамаэ Андо, Токио Эмото, Эна Косино, Кэнго Кора, Кэн Мицуиси, Кадзуки Намиока, Мисако Рэнбуцу, Ацуси Синохара, Сюри, Куми Такиути

Описание:

Миюки работает в муниципалитете города Фукусима. Её мать погибла от цунами в 2011 году, и теперь девушка живёт с отцом во временном жилье. По выходным Миюки ездит в токийский квартал Сибуя и работает там проституткой.

Качество: BDRip 720p
Формат: MKV

Видео: h.264, 6 001 kb/s, 1280x692
Аудио#1: Русский (AC3, 2 ch, 448 Кбит/с)
скриншот  скриншот  скриншот  

Общее
Уникальный идентификатор : 181021997231804572114318712993594873173 (0x882F91899E809607BD73BE95A48E1555)
Полное имя : D:\Side.Job.2O17.P.BDRip.72Op_KOSHARA.mkv
Формат : Matroska
Версия формата : Version 2
Размер файла : 5,57 Гбайт
Продолжительность : 2 ч. 3 м.
Режим общего битрейта : Переменный
Общий поток : 6451 Кбит/сек
Дата кодирования : UTC 2018-08-17 06:33:45
Программа кодирования : mkvmerge v8.3.0 ('Over the Horizon') 64bit
Библиотека кодирования : libebml v1.3.1 + libmatroska v1.4.2

Видео
Идентификатор : 1
Формат : AVC
Формат/Информация : Advanced Video Codec
Профиль формата : High@L4.1
Параметр CABAC формата : Да
Параметр RefFrames формата : 4 кадра
Идентификатор кодека : V_MPEG4/ISO/AVC
Продолжительность : 2 ч. 3 м.
Вид битрейта : Переменный
Битрейт : 6001 Кбит/сек
Максимальный битрейт : 6900 Кбит/сек
Ширина : 1280 пикселей
Высота : 692 пикселя
Соотношение сторон : 1,85:1
Режим частоты кадров : Постоянный
Частота кадров : 23,976 (24000/1001) кадра/сек
Стандарт вещания : Component
Цветовое пространство : YUV
Субдискретизация насыщенности : 4:2:0
Битовая глубина : 8 бит
Тип развёртки : Прогрессивная
Бит/(Пиксели*Кадры) : 0.277
Размер потока : 5,08 Гбайт (91%)
Default : Да
Forced : Нет
Цветовой диапазон : Limited
Основные цвета : BT.709
Характеристики трансфера : BT.709
Коэффициенты матрицы : BT.709

Аудио
Идентификатор : 2
Формат : AC-3
Формат/Информация : Audio Coding 3
Расширение режима : CM (complete main)
Параметр Endianness формата : Big
Идентификатор кодека : A_AC3
Продолжительность : 2 ч. 3 м.
Вид битрейта : Постоянный
Битрейт : 448 Кбит/сек
Каналы : 2 канала
Расположение каналов : Front: L R
Частота : 48,0 КГц
Частота кадров : 31,250 кадров/сек (1536 spf)
Метод сжатия : С потерями
Размер потока : 396 Мбайт (7%)
Default : Да
Forced : Нет

pb.wtf



Скачать Её жизнь – не ошибка через торрент http://img11.lostpic.net/2018/08/20/9efe5fd138cb31f332a5e56b2914d2f2.jpg Скачать фильм Её жизнь – не ошибка через торрент бесплантно в хорошем качестве Описание: Миюки работает в муниципалитете города Фукусима. Её мать погибла от цунами в 2011 году, и теперь девушка живёт с отцом во ... 10 10 7
Торрент: Зарегистрирован [2018-08-20 19:50] · скачан: 57 раз
Статус: # сомнительно
Размер: 5.57 GB
Как cкачать? Как скачать Её жизнь – не ошибка через торрент | qTorrent

% Раздел Тема Автор DL S | L
T Фильмы (мультфильмы) cо спонсором показа (Новинки AVI/MKV) [ 1.37 GB ] Её жизнь – не ошибка / Kanojo no jinsei wa machigaijanai [2017 HDRip] MVO ["Синема УС"] bober100 Скачать
2 | 0
T Фильмы (мультфильмы) cо спонсором показа (Новинки AVI/MKV) [ 2.05 GB ] Её жизнь – не ошибка / Kanojo no jinsei wa machigaijanai [2017 HDRip] MVO ["Синема УС"] bober100 Скачать
1 | 0

28-11-2019 20:33  

Отключить всю рекламу на сайте

    Дорогой пользователь! Огромная просьба, поблагодарите релизера, оцените раздачу и оставьте свои комментарий, если Вы скачали Её жизнь – не ошибка через торрент бесплатно! Внесите свою лепту в развитие PiratBit!
    Комментировать посты могут только пользователи прошедшие не сложную регистрацию
    Показать сообщения:    

    Её жизнь – не ошибка через торрент
    Скачать бесплатно Её жизнь – не ошибка
    Её жизнь – не ошибка скачать торрент
    Её жизнь – не ошибка смотреть онлайн
    Cкачать фильм Её жизнь – не ошибка бесплатно
    Её жизнь – не ошибка скачать торрент в хорошем качестве
    Её жизнь – не ошибка смотреть онлайн бесплатно в хорошем качестве


    Вы не можете начинать темы
    Вы не можете отвечать на сообщения
    Вы не можете редактировать свои сообщения
    Вы не можете удалять свои сообщения
    Вы не можете голосовать в опросах
    Вы не можете прикреплять файлы к сообщениям
    Вы можете скачивать файлы