Ссылка на приватное зеркало нашего сайта всего за 1$. Внимание количество ограничено!!!

2 сезон

iTunes

1 сезон

1

iTunes

iTunes

iTunes

1 сезон

RePack

30

ИГРА 18+

pack

ВАЖНО

!!Акция!!

Alien_RageХит недели

RePack

MK11
pack

Забери бонус

RePack

jed

!!Акция!!

Alien_Rage

RePack

fifa19

RePack

Assassins Creed: Odyssey

RePack

NEED FOR SPEED™ PAYBACK

4 сезон

9 сезон

Бесстыжие 9 сезон

Все сериалы

все сериалы на PB.wtf

RePack

FAR CRY 5
  

Шелест. Большой передел / Сезон: 2 / Серии: 1-16 из 16 (Дмитрий Коробкин) [2018, Криминал, боевик, WEB-DL 1080p] pb.wtf

Шелест. Большой передел через торрент pb.wtf

Размер: 33.74 GB | Добавлен: 2 года 1 мес. назад | Торрент скачан:19 раз
Скачать  

20-08-2018 20:08 Шелест. Большой передел Скачать торрент  

Шелест. Большой передел
Год выпуска: 2018
Страна: Россия
Жанр: Криминал, боевик
Продолжительность: ~ 00:50:00
Субтитры: отсутствуют

Режиссер: Дмитрий Коробкин



В ролях:

Владимир Зайцев, Сергей Чирков, Константин Федоров, Юрий Архангельский, Михаил Химичев, Елена Корикова, Ольга Абрамова, Игорь Старосельцев, Александр Лырчиков, Кирилл Быркин, Валентин Варецкий, Сергей Генкин, Максим Литовченко, Андрей Багиров, Владимир Гусев, Михаил Полицеймако, Натали Старынкевич, Алексей Павлусенко, Дмитрий Коробкин, Константин Снегов, Алексей Матвеев, Елена Полякова, Юрий Ваксман, Константин Силаков, Сергей Шарифуллин, Ирина Туманцева, Илья Колесов, Олег Новиков, Ирина Климушкина, Иван Баранов, Ольга Маругина, Евгений Леконцев, Александра Артемьева, Людмила Ковалёва, Вадим Ракитин

Описание:

Павел Шелестов продолжает работу в ярославском уголовном розыске и пытается построить стабильные отношения с Алиной Большовой, вдовой главы преступной группировки. После потери мужа героиня получает в наследство огромное состояние, но вместе с тем становится мишенью для охотников за сбережениями Большова. Теперь Шелесту предстоит сразиться с оставшимися без присмотра бандитами, и придумать, как сохранить жизнь своей возлюбленной.

Качество: WEB-DL 1080p
Формат: MKV

Видео: 1920х1080 (16:9), 25 fps, AVC MPEG-4 (x264), High@L4.0 ~ 6000 kbps avg, 0.152 bit/pixel
Аудио: 48 kHz, MPEG Layer 2, 2 ch, ~ 192 kbps avg
скриншот  скриншот  скриншот  скриншот  

General
Unique ID : 187524899516872302919156211230344086931 (0x8D13FB5FBFEF651FB115629A9F520593)
Complete name : D:\сериалы сид\Shelest-2.Bolshoy.peredel.2018.WEB-DL.(1080p).Nikolspup\Shelest-2.Bolshoy.peredel.(01.seriya.iz.16).2018.WEB-DL.(1080p).Nikolspup.mkv
Format : Matroska
Format version : Version 4 / Version 2
File size : 2.16 GiB
Duration : 50mn 7s
Overall bit rate mode : Constant
Overall bit rate : 6 157 Kbps
Encoded date : UTC 2018-08-20 19:09:47
Writing application : mkvmerge v7.8.0 ('River Man') 32bit built on Mar 27 2015 16:18:02
Writing library : libebml v1.3.1 + libmatroska v1.4.2
DURATION : 00:50:07.360000000
NUMBER_OF_FRAMES : 93980
NUMBER_OF_BYTES : 72176640
_STATISTICS_WRITING_APP : mkvmerge v7.8.0 ('River Man') 32bit built on Mar 27 2015 16:18:02
_STATISTICS_WRITING_DATE_UTC : 2018-08-20 19:09:47
_STATISTICS_TAGS : BPS DURATION NUMBER_OF_FRAMES NUMBER_OF_BYTES

Video
ID : 1
Format : AVC
Format/Info : Advanced Video Codec
Format profile : High@L4.1
Format settings, CABAC : No
Format settings, ReFrames : 2 frames
Codec ID : V_MPEG4/ISO/AVC
Duration : 50mn 7s
Bit rate mode : Constant
Bit rate : 6 000 Kbps
Width : 1 920 pixels
Height : 1 080 pixels
Display aspect ratio : 16:9
Frame rate mode : Constant
Frame rate : 25.000 fps
Standard : PAL
Color space : YUV
Chroma subsampling : 4:2:0
Bit depth : 8 bits
Scan type : Progressive
Bits/(Pixel*Frame) : 0.116
Stream size : 2.05 GiB (95%)
Default : Yes
Forced : No
Color primaries : BT.709
Transfer characteristics : BT.709
Matrix coefficients : BT.709

Audio
ID : 2
Format : AC-3
Format/Info : Audio Coding 3
Mode extension : CM (complete main)
Format settings, Endianness : Big
Codec ID : A_AC3
Duration : 50mn 7s
Bit rate mode : Constant
Bit rate : 192 Kbps
Channel count : 2 channels
Channel positions : Front: L R
Sampling rate : 48.0 KHz
Bit depth : 16 bits
Compression mode : Lossy
Stream size : 68.8 MiB (3%)
Language : Russian
Default : Yes
Forced : No

Внимание! Раздача ведётся путём добавления новых серий; при каждом добавлении создаётся новый торрент.
Чтобы начать докачку новой серии, пользователям необходимо сделать следующее:
1. Остановить скачивание;
2. Удалить старый торрент у себя из клиента (старые серии удалять не надо);
3. Скачать новый торрент и запустить его у себя в клиенте вместо старого, при этом указать клиенту путь в старую папку куда и должно происходить скачивание новых серий. Ваш клиент при этом должен произвести хеширование (проверку) старой папки и будет докачивать только те серии, которых у вас ещё нет. Старые серии при этом не удаляются, а продолжают раздаваться! Eсли вы уже удалили старые серии, то предотвратить повторную закачку старых серий можно, отжав галочку в соответствующих местах при запуске нового торрента.
pb.wtf



Скачать Шелест. Большой передел через торрент http://i103.fastpic.ru/big/2018/0820/95/5abf0936ac760d441db99890e96f4a95.png Скачать фильм Шелест. Большой передел через торрент бесплантно в хорошем качестве Описание: Павел Шелестов продолжает работу в ярославском уголовном розыске и пытается построить стабильные отношения с Алиной Большовой, ... 9.8 10 5
Торрент: Зарегистрирован [2018-08-31 08:24] · скачан: 19 раз
Статус: √ проверено
Размер: 33.74 GB
Как cкачать? Как скачать Шелест. Большой передел через торрент | qTorrent

% Раздел Тема Автор DL S | L
Наши сериалы [ 10.63 GB ] Шелест. Большой передел / Сезон 2 / Серия 1-16 из 16 [2018 SATRip] oleg8 Скачать
1 | 0
Наши сериалы [ 10.66 GB ] Шелест. Большой передел / Сезон: 2 / Серии: 1-16 из 16 [2018 SATRip-AVC] aleksan55 Скачать
1 | 0
Наши сериалы [ 20.24 GB ] Шелест. Большой передел / Сезон: 2 / Серии: 1-16 из 16 [2018 WEBRip 720p] bober100 Скачать
1 | 0
Наши сериалы [ 12.02 GB ] Шелест. Большой передел / Сезон: 2 / Серии: 1-16 из 16 [2018 WEB-DLRip-AVC] bober100 Скачать
1 | 0
Наши сериалы [ 9.33 GB ] Шелест. Большой передел / Сезон: 2 / Серии: 1-16 из 16 [2018 WEB-DLRip] bober100 Скачать
1 | 0


Последний раз редактировалось: bober100 (2018-08-31 08:24), всего редактировалось 9 раз(а)

28-11-2019 20:33  

Отключить всю рекламу на сайте

20-08-2018 20:25 Шелест. Большой передел Скачать торрент  

1 сезон был норм. Но вот в этом Сергей Чирков меня раздражает его рожа.pb.wtf



    Дорогой пользователь! Огромная просьба, поблагодарите релизера, оцените раздачу и оставьте свои комментарий, если Вы скачали Шелест. Большой передел через торрент бесплатно! Внесите свою лепту в развитие PiratBit!
    Комментировать посты могут только пользователи прошедшие не сложную регистрацию
    Показать сообщения:    

    Шелест. Большой передел через торрент
    Скачать бесплатно Шелест. Большой передел
    Шелест. Большой передел скачать торрент
    Шелест. Большой передел смотреть онлайн
    Cкачать фильм Шелест. Большой передел бесплатно
    Шелест. Большой передел скачать торрент в хорошем качестве
    Шелест. Большой передел смотреть онлайн бесплатно в хорошем качестве


    Вы не можете начинать темы
    Вы не можете отвечать на сообщения
    Вы не можете редактировать свои сообщения
    Вы не можете удалять свои сообщения
    Вы не можете голосовать в опросах
    Вы не можете прикреплять файлы к сообщениям
    Вы можете скачивать файлы