Ссылка на приватное зеркало всего за 1$. Внимание количество ограничено!!!

iTunes

1+1

iTunes

мы

WEB-DL

1

iTunes

Чернобыль

iTunes

Ральф против интернета

Лицензия

ПШазам

Лицензия

Оно 2

Лицензия

30
pack

Вам бонус

ВАЖНО

!!Акция!!

Alien_RageХит недели

RePack

Resident Evil 21

ИГРА 18+

pack

RePack

jed

!!Акция!!

Alien_Rage

RePack

fifa19

RePack

Assassins Creed: Odyssey

RePack

NEED FOR SPEED™ PAYBACK

3 сезон

9 сезон

Бесстыжие 9 сезон

Все сериалы

все сериалы на PB.wtf

RePack

FAR CRY 5
Ребята, катастрофически не хватает 1900р. для оплаты серверов за Октябрь (всвязи с блокировками трафик упал в 3 раза), 1-2р., выручайте.
  

Псы под прикрытием / Show Dogs (Раджа Госнелл) [2018, комедия, приключения, семейный, BDRip-AVC] DUB [iTunes] - ExKinoRay pb.wtf

Псы под прикрытием через торрент pb.wtf

Размер: 2.23 GB | Добавлен: 1 год 3 мес. назад | Торрент скачан:223 раза
Скачать  

20-08-2018 22:16 Псы под прикрытием Скачать торрент  

Информация о фильме
Название: Псы под прикрытием
Оригинальное название: Show Dogs
Год выхода: 2018
Жанр: Комедия, приключения, семейный
Страна: Великобритания, США
Перевод: Дублированный | iTunes
Продолжительность: 01:30:45
Режиссер: Раджа Госнелл
В ролях: Уилл Арнетт, Лудакрис, Наташа Лионн, Стэнли Туччи, Джордин Спаркс, Габриэль Иглесиас, Шакил О’Нил, Алан Камминг, Омар Чапарро, Андерс Холм и др.

Описание: Серьезному детективу предстоит работа с необычным напарником — говорящим псом Максом, который не замолкает ни на минуту и фанатеет от рэпа. Вместе они отправятся в Лас-Вегас, где на элитной выставке собак проворачиваются аферы по перепродаже редких животных. И сядут мошенникам на хвост.

rating

Файл
Качество: BDRip-AVC
Видео: MPEG-4 AVC, 1024x552, 2680 kbps, 23,976 fps
Звук#1: русский, AC3, 5.1, 48 kHz, 384 kbps | iTunes
Звук#2: английский, AC3, 5.1, 48 kHz, 448 kbps | оригинал
Субтитры: английские
General
Unique ID : 249757929524803131441529786633210230418 (0xBBE5A0A5EFDE920BB4BF6A1E3962F692)
Complete name : D:\Show.Dogs.2018.BDRip.AVC.ExKinoRay.mkv
Format : Matroska
Format version : Version 2
File size : 2.23 GiB
Duration : 1 h 30 min
Overall bit rate : 3 511 kb/s
Movie name : Show Dogs 2018 from ExKinoRay
Encoded date : UTC 2018-08-19 14:00:54
Writing application : mkvmerge v5.6.0 ('Kenya Kane') built on May 27 2012 16:44:04
Writing library : libebml v1.2.3 + libmatroska v1.3.0

Video
ID : 1
Format : AVC
Format/Info : Advanced Video Codec
Format profile : High@L4.1
Format settings, CABAC : Yes
Format settings, ReFrames : 12 frames
Codec ID : V_MPEG4/ISO/AVC
Duration : 1 h 30 min
Bit rate : 2 680 kb/s
Width : 1 024 pixels
Height : 552 pixels
Display aspect ratio : 1.85:1
Frame rate mode : Constant
Frame rate : 23.976 (23976/1000) FPS
Color space : YUV
Chroma subsampling : 4:2:0
Bit depth : 8 bits
Scan type : Progressive
Bits/(Pixel*Frame) : 0.198
Stream size : 1.65 GiB (74%)
Title : Enigma
Writing library : x264 core 152 r2851 ba24899
Encoding settings : cabac=1 / ref=12 / deblock=1:-2:-2 / analyse=0x3:0x113 / me=umh / subme=10 / psy=1 / psy_rd=1.00:0.10 / mixed_ref=1 / me_range=32 / chroma_me=1 / trellis=2 / 8x8dct=1 / cqm=0 / deadzone=21,11 / fast_pskip=0 / chroma_qp_offset=-3 / threads=12 / lookahead_threads=2 / sliced_threads=0 / nr=0 / decimate=0 / interlaced=0 / bluray_compat=0 / constrained_intra=0 / bframes=9 / b_pyramid=2 / b_adapt=2 / b_bias=0 / direct=3 / weightb=1 / open_gop=0 / weightp=2 / keyint=240 / keyint_min=23 / scenecut=40 / intra_refresh=0 / rc=2pass / mbtree=0 / bitrate=2680 / ratetol=1.0 / qcomp=0.60 / qpmin=0 / qpmax=51 / qpstep=4 / cplxblur=20.0 / qblur=0.5 / ip_ratio=1.40 / pb_ratio=1.30 / aq=2:0.90
Language : English
Default : Yes
Forced : No
Color range : Limited
Color primaries : BT.709
Transfer characteristics : BT.709
Matrix coefficients : BT.709

Audio #1
ID : 2
Format : AC-3
Format/Info : Audio Coding 3
Mode extension : CM (complete main)
Format settings, Endianness : Big
Codec ID : A_AC3
Duration : 1 h 30 min
Bit rate mode : Constant
Bit rate : 384 kb/s
Channel(s) : 6 channels
Channel positions : Front: L C R, Side: L R, LFE
Sampling rate : 48.0 kHz
Frame rate : 31.250 FPS (1536 spf)
Compression mode : Lossy
Stream size : 249 MiB (11%)
Title : iTunes
Language : Russian
Default : Yes
Forced : No

Audio #2
ID : 3
Format : AC-3
Format/Info : Audio Coding 3
Mode extension : CM (complete main)
Format settings, Endianness : Big
Codec ID : A_AC3
Duration : 1 h 30 min
Bit rate mode : Constant
Bit rate : 448 kb/s
Channel(s) : 6 channels
Channel positions : Front: L C R, Side: L R, LFE
Sampling rate : 48.0 kHz
Frame rate : 31.250 FPS (1536 spf)
Compression mode : Lossy
Stream size : 291 MiB (13%)
Language : English
Default : No
Forced : No

Text
ID : 4
Format : UTF-8
Codec ID : S_TEXT/UTF8
Codec ID/Info : UTF-8 Plain Text
Language : English
Default : No
Forced : No

Menu
00:00:00.000 : en:Chapter 01
00:06:56.666 : en:Chapter 02
00:11:53.671 : en:Chapter 03
00:15:24.798 : en:Chapter 04
00:18:05.417 : en:Chapter 05
00:21:21.488 : en:Chapter 06
00:26:12.237 : en:Chapter 07
00:29:26.514 : en:Chapter 08
00:34:33.112 : en:Chapter 09
00:40:10.533 : en:Chapter 10
00:45:16.880 : en:Chapter 11
00:52:45.245 : en:Chapter 12
00:56:24.547 : en:Chapter 13
01:00:49.354 : en:Chapter 14
01:03:03.488 : en:Chapter 15
01:08:05.623 : en:Chapter 16
01:11:13.477 : en:Chapter 17
01:13:22.981 : en:Chapter 18
01:19:36.730 : en:Chapter 19
01:23:38.513 : en:Chapter 20
Релиз от:

Автор релиза: pb.wtf



Скачать Псы под прикрытием через торрент http://i103.fastpic.ru/big/2018/0817/0a/c004ba317ebbc49364015e3674ab140a.jpeg Скачать фильм Псы под прикрытием через торрент бесплантно в хорошем качестве Описание: Серьезному детективу предстоит работа с необычным напарником — говорящим псом Максом, который не замолкает ни на минуту и ... 10 10 9
Info! Золотая раздача, скачанное не засчитывается.
Торрент: Зарегистрирован [2018-08-20 22:16] · скачан: 223 раз
Статус: √ проверено
Размер: 2.23 GB
Как cкачать? Как скачать Псы под прикрытием через торрент | qTorrent

28-11-2019 20:33  

Отключить всю рекламу на сайте

21-08-2018 06:50 Псы под прикрытием Скачать торрент  

sarcasticpb.wtf



    Дорогой пользователь! Огромная просьба, поблагодарите релизера, оцените раздачу и оставьте свои комментарий, если Вы скачали Псы под прикрытием через торрент бесплатно! Внесите свою лепту в развитие PiratBit!
    Комментировать посты могут только пользователи прошедшие не сложную регистрацию
    Показать сообщения:    

    Псы под прикрытием через торрент
    Скачать бесплатно Псы под прикрытием
    Псы под прикрытием скачать торрент
    Псы под прикрытием смотреть онлайн
    Cкачать фильм Псы под прикрытием бесплатно
    Псы под прикрытием скачать торрент в хорошем качестве
    Псы под прикрытием смотреть онлайн бесплатно в хорошем качестве


    Вы не можете начинать темы
    Вы не можете отвечать на сообщения
    Вы не можете редактировать свои сообщения
    Вы не можете удалять свои сообщения
    Вы не можете голосовать в опросах
    Вы не можете прикреплять файлы к сообщениям
    Вы можете скачивать файлы